[ Сегодня идет свободное скачивание без начисления Download ]


Статистика раздачи
Нет
 
   
 
Top  
 
 
Название: Судьба
Оригинальное название: Destino
Год выпуска: 2003
Страна: США, Франция
Жанр: Анимация, Сюрреализм
Продолжительность: 00:06:31
Перевод: Не требуется
Субтитры: Нет
Режиссер: Доминик Монфери--Описание: Сотрудничество между Walt Disney и выдающимся художником-сюрреалистом началось в 1945 году во время работы над анимацией, рассказывающей о любви Хроноса и смертной женщины. Используя оригинальные фрагменты, а также наброски и сценарий, подобрав музыку, студия Disney закончила начатую семьдесят лет назад историю.--
Кодек: AVC
Формат: MKV
Качество: HDRip 720p
Видео: 1280x720, 59.940 fps, 7931 Kbps
Аудио №1:AC-3, 2 ch, 320 kbps, 48.0 KHz (Оригинал)

Познавательная минутка

В 1946 году Дали и Дисней подписали контракт на производство сюрреалистичного мультфильма «Destino». Но между гениальным живописцем и не менее гениальным мультипликатором «разногласия» были неизбежны. Сальвадор Дали запросил баснословную сумму и упорствовал, что до завершения мультфильм не должен являться собственностью Диснея. Закончить работу над мультфильмом Диснею помешали финансовые проблемы, в послевоенные годы аниматор создавал большое количество картин по заказу правительства и почти ничего не зарабатывал. «Дестино» воссоздали из сотен раскадровок, рисунков и набросков, созданных в 1945-м — 1946-м годах. Они хранились в архивах племянника Уолта Диснея, Роя. Он, кстати, вошёл в команду из 25-ти аниматоров, работавших над мультфильмом. Сотрудничество студии Диснея с Дали началось в 40-м году с мультфильма «Фантазия» (ставшего классикой мультипликации), именно тогда основатель знаменитой студии решил, что взаимодействие с художником поможет возвести анимацию в ранг «высокого искусства». После 60-летних мучений «Destino» был завершен — и только в 2003 году увидел свет. Результатом является мультфильм, сотворённый в технике традиционной (рисованной) анимации с использованием компьютерной графики. Оригинальный 18-секундный видеоматериал включён в фильм (в сцене с двумя черепахами).

MediaInfo

General
Unique ID : 173970166877169238681258915676709956723 (0x82E16F752FD14BEBAF39BD6C7BD7AC73)
Complete name : J:\60FPS\Destino\Destino [60FPS by ZHz].mkv
Format : Matroska
Format version : Version 4 / Version 2
File size : 393 MiB
Duration : 6mn 31s
Overall bit rate : 8 419 Kbps
Movie name : Destino (2003) BDRip 720p x264 {@~G.Y~@}
Encoded date : UTC 2015-05-20 08:15:05
Writing application : mkvmerge v7.5.0 ('Glass Culture') 64bit built on Jan 4 2015 16:48:44
Writing library : libebml v1.3.1 + libmatroska v1.4.2
_STATISTICS_WRITING_APP : mkvmerge v7.5.0 ('Glass Culture') 64bit built on Jan 4 2015 16:48:44
_STATISTICS_WRITING_DATE_UT : 2015-05-20 08:15:05
_STATISTICS_TAGS : BPS DURATION NUMBER_OF_FRAMES NUMBER_OF_BYTES
DURATION : 00:06:31.392000000
NUMBER_OF_FRAMES : 12231
NUMBER_OF_BYTES : 15655680
Video
ID : 1
Format : AVC
Format/Info : Advanced Video Codec
Format profile : Main@L4.0
Format settings, CABAC : Yes
Format settings, ReFrames : 7 frames
Codec ID : V_MPEG4/ISO/AVC
Duration : 6mn 31s
Bit rate : 7 931 Kbps
Width : 1 280 pixels
Height : 720 pixels
Display aspect ratio : 16:9
Frame rate mode : Constant
Frame rate : 59.880 fps
Original frame rate : 59.940 fps
Color space : YUV
Chroma subsampling : 4:2:0
Bit depth : 8 bits
Scan type : Progressive
Bits/(Pixel*Frame) : 0.144
Stream size : 370 MiB (94%)
Writing library : x264 core 144 r2525 40bb568
Encoding settings : cabac=1 / ref=7 / deblock=1:0:0 / analyse=0x1:0x110 / me=esa / subme=9 / psy=1 / psy_rd=1.00:0.00 / mixed_ref=0 / me_range=32 / chroma_me=1 / trellis=2 / 8x8dct=0 / cqm=0 / deadzone=21,11 / fast_pskip=1 / chroma_qp_offset=-2 / threads=12 / lookahead_threads=1 / sliced_threads=0 / nr=0 / decimate=1 / interlaced=0 / bluray_compat=0 / constrained_intra=0 / bframes=5 / b_pyramid=2 / b_adapt=2 / b_bias=0 / direct=3 / weightb=1 / open_gop=0 / weightp=2 / keyint=250 / keyint_min=25 / scenecut=40 / intra_refresh=0 / rc=crf / mbtree=0 / crf=17.0 / qcomp=0.60 / qpmin=0 / qpmax=69 / qpstep=4 / ip_ratio=1.40 / pb_ratio=1.30 / aq=1:1.00
Language : English
Default : Yes
Forced : No
DURATION : 00:06:31.408000000
NUMBER_OF_FRAMES : 23461
NUMBER_OF_BYTES : 396044395
_STATISTICS_WRITING_APP : mkvmerge v7.5.0 ('Glass Culture') 64bit built on Jan 4 2015 16:48:44
_STATISTICS_WRITING_DATE_UT : 2015-05-20 08:15:05
_STATISTICS_TAGS : BPS DURATION NUMBER_OF_FRAMES NUMBER_OF_BYTES
Audio
ID : 2
Format : AC-3
Format/Info : Audio Coding 3
Mode extension : CM (complete main)
Format settings, Endianness : Big
Codec ID : A_AC3
Duration : 6mn 31s
Bit rate mode : Constant
Bit rate : 320 Kbps
Channel(s) : 2 channels
Channel positions : Front: L R
Sampling rate : 48.0 KHz
Bit depth : 16 bits
Compression mode : Lossy
Stream size : 14.9 MiB (4%)
Default : Yes
Forced : No

Скриншоты

[Цитировать]



Показать сообщения:    

Текущее время: 10-Дек 19:39

Часовой пояс: UTC + 3


Вы не можете начинать темы
Вы не можете отвечать на сообщения
Вы не можете редактировать свои сообщения
Вы не можете удалять свои сообщения
Вы не можете голосовать в опросах
Вы не можете прикреплять файлы к сообщениям
Вы не можете скачивать файлы

!ВНИМАНИЕ!
Сайт не предоставляет электронные версии произведений, а занимается лишь коллекционированием и каталогизацией ссылок, присылаемых и публикуемых на форуме нашими читателями. Если вы являетесь правообладателем какого-либо представленного материала и не желаете, чтобы ссылка на него находилась в нашем каталоге, свяжитесь с нами, и мы незамедлительно удалим ее. Файлы для обмена на трекере предоставлены пользователями сайта, и администрация не несет ответственности за их содержание. Просьба не заливать файлы, защищенные авторскими правами, а также файлы нелегального содержания!