[ Сегодня идет свободное скачивание без начисления Download ]


Статистика раздачи
Нет
 
   
 
Top  
 
 
За спичками (1979) DVDRip | 60fps- -Русское название: За спичками
Год выпуска: 1979
Производство: СССР
Жанр: Комедия-Режиссер: Леонид Гайдай, Ристо Орко
Актеры: Евгений Леонов, Вячеслав Невинный, Рита Полстер, Ритва Валкама, Георгий Вицин, Галина Польских, Лео Ластумяки, Олави Ахонен, Пекка Аутиовуори, Сергей Филиппов, Нина Гребешкова, Кауко Хеловирта, Вера Ивлева, Михаил Пуговкин, Симо Лахтинен-Описание фильма:
Фильм снят по повести классика финской литературы Майю Лассила и освещает события 1910 года. В сюжете повести много столь необходимых комедии "если бы". В доме Ихалайнена кончились спички и невозможно развести огонь для приготовления так любимого финнами кофе. Потом случайная встреча с приятелем, и как следствие того, нарушение данного двадцать лет назад зарока не брать в рот спиртного. Затем неожиданное свидание в городе Юсси Ватанена со своей старой подружкой. Добавьте к этому неповторимые, тонко обыгранные писателем черточки национального характера, своеобразного быта, приплюсуйте эксцентричность натур главных героев, то и дело попадающих в совершенно невероятные ситуации. И когда вы проделаете все это, то поймете, что данный литературный сюжет на редкость богат возможностями для трюковых съемок, для комедии положений, для словесного юмора, для кинематографической эксцентрики. А это как раз то, что требуется в хорошей комедии- -Продолжительность: 01:33:50
Качество видео: DVDRip
Контейнер: MKV
Видеокодек: MPEG-4 AVC/H.264
Битрейт видео: 6099 Кбит/сек
Размер кадра: 720 x 512 (1.406) 60.000 fps
Аудиокодек: AC-3
Битрейт аудио: 48 kHz, 448 Кбит/сек, 6 каналов

MI

Программа кодирования : mkvmerge v3.4.0 ('Rapunzel') сборка от May 15 2010 09:38:20
Библиотека кодирования : libebml v0.8.0 + libmatroska v0.9.0

Видео
Идентификатор : 1
Формат : AVC
Формат/Информация : Advanced Video Codec
Профиль формата : High@L4.1
Параметр CABAC формата : Да
Параметр ReFrames формата : 16 кадров
Идентификатор кодека : V_MPEG4/ISO/AVC
Продолжительность : 1 ч. 33 м.
Битрейт : 6099 Кбит/сек
Ширина : 720 пикселей
Высота : 512 пикселей
Соотношение сторон : 1,406
Режим частоты кадров : Постоянный
Частота кадров : 60,000 кадров/сек
Цветовое пространство : YUV
Субдискретизация насыщенности : 4:2:0
Битовая глубина : 8 бит
Тип развёртки : Прогрессивная
Бит/(Пиксели*Кадры) : 0.276
Размер потока : 3,92 Гбайт (91%)
Заголовок : reliz kryl1411
Библиотека кодирования : x264 core 129 r2245 bc13772
Настройки программы : cabac=1 / ref=16 / deblock=1:-2:-3 / analyse=0x3:0x133 / me=esa / subme=10 / psy=1 / psy_rd=1.00:0.00 / mixed_ref=1 / me_range=32 / chroma_me=1 / trellis=2 / 8x8dct=1 / cqm=0 / deadzone=21,11 / fast_pskip=1 / chroma_qp_offset=-2 / threads=12 / lookahead_threads=2 / sliced_threads=0 / nr=0 / decimate=1 / interlaced=0 / bluray_compat=0 / constrained_intra=0 / bframes=8 / b_pyramid=2 / b_adapt=2 / b_bias=0 / direct=3 / weightb=1 / open_gop=0 / weightp=2 / keyint=600 / keyint_min=60 / scenecut=40 / intra_refresh=0 / rc_lookahead=60 / rc=2pass / mbtree=1 / bitrate=6099 / ratetol=1.0 / qcomp=0.60 / qpmin=0 / qpmax=69 / qpstep=4 / cplxblur=20.0 / qblur=0.5 / ip_ratio=1.40 / aq=1:1.00
Язык : English
Default : Нет
Forced : Нет
Аудио
Идентификатор : 2
Формат : AC-3
Формат/Информация : Audio Coding 3
Расширение режима : CM (complete main)
Параметр Endianness формата : Big
Идентификатор кодека : A_AC3
Продолжительность : 1 ч. 33 м.
Вид битрейта : Постоянный
Битрейт : 448 Кбит/сек
Каналы : 6 каналов
Расположение каналов : Front: L C R, Side: L R, LFE
Частота : 48,0 КГц
Битовая глубина : 16 бит
Метод сжатия : С потерями
Размер потока : 301 Мбайт (7%)
Заголовок : Аудио 1
Язык : Russian
Default : Нет
Forced : Нет

Скриншоты


[Цитировать]



Показать сообщения:    

Текущее время: 07-Дек 11:44

Часовой пояс: UTC + 3


Вы не можете начинать темы
Вы не можете отвечать на сообщения
Вы не можете редактировать свои сообщения
Вы не можете удалять свои сообщения
Вы не можете голосовать в опросах
Вы не можете прикреплять файлы к сообщениям
Вы не можете скачивать файлы

!ВНИМАНИЕ!
Сайт не предоставляет электронные версии произведений, а занимается лишь коллекционированием и каталогизацией ссылок, присылаемых и публикуемых на форуме нашими читателями. Если вы являетесь правообладателем какого-либо представленного материала и не желаете, чтобы ссылка на него находилась в нашем каталоге, свяжитесь с нами, и мы незамедлительно удалим ее. Файлы для обмена на трекере предоставлены пользователями сайта, и администрация не несет ответственности за их содержание. Просьба не заливать файлы, защищенные авторскими правами, а также файлы нелегального содержания!