[ Today is free to download without increasing Download ]

DL-List and Torrent activity
Информация о фильме
Название: Тишина
Оригинальное название: Silence
Год выхода: 2013
Жанр: Драма, триллер
Режиссер: В. К. Пракаш
В ролях: Маммутти, Ануп Менон, Джой Мэтью
Описание: Арвинд очень успешный юрист с хорошим послужным списком назначается судьей в один из штатов. С помощью свого близкого друга Нила, офицера полиции, он возобновляет следствие по одному старому убийству. Одновременно с этим Арвинд начинает получать анонимные звонки и угрозы от неизвестных людей и некоторые факты из прошлого Арвинда всплывают на поверхность...-- Скачать:Сэмпл--Выпущено: Индия
Продолжительность: 01:52:38
Озвучивание: Профессиональный (многоголосый закадровый) - SDI Media (т/к Индия ТВ)--Файл
Формат: AVI (XviD)
Качество: DVDRip
Видео: 1640 kb/s, 720x304
Звук: AC3, 192 kb/s (2 ch)
Размер: 1.46 GB--

Media Info

Complete name : C:INDIYATishina.2013.P.DVDRip.XviD-soso4eg.avi
Format : AVI
Format/Info : Audio Video Interleave
File size : 1.45 GiB
Duration : 1h 52mn
Overall bit rate : 1 842 Kbps
Movie name : Silence.2013.Р.DVDRip.XviD-soso4eg
Director : soso4eg
Writing application : VirtualDubMod (build 2540/release)
Original source form/Name : Malayalam
Comment : пер. SDI Media
ID : 0
Format : MPEG-4 Visual
Format profile : Advanced Simple@L5
Format settings, BVOP : 1
Format settings, QPel : No
Format settings, GMC : No warppoints
Format settings, Matrix : Default (MPEG)
Codec ID : XVID
Codec ID/Hint : XviD
Duration : 1h 52mn
Bit rate : 1 641 Kbps
Width : 720 pixels
Height : 304 pixels
Display aspect ratio : 2.35:1
Frame rate : 23.976 fps
Color space : YUV
Chroma subsampling : 4:2:0
Bit depth : 8 bits
Scan type : Progressive
Compression mode : Lossy
Bits/(Pixel*Frame) : 0.313
Stream size : 1.29 GiB (89%)
Writing library : XviD 1.2.1 (UTC 2008-12-04)
ID : 1
Format : AC-3
Format/Info : Audio Coding 3
Mode extension : CM (complete main)
Format settings, Endianness : Big
Codec ID : 2000
Duration : 1h 52mn
Bit rate mode : Constant
Bit rate : 192 Kbps
Channel(s) : 2 channels
Channel positions : Front: L R
Sampling rate : 48.0 KHz
Bit depth : 16 bits
Compression mode : Lossy
Stream size : 155 MiB (10%)
Alignment : Split accross interleaves
Interleave, duration : 42 ms (1.00 video frame)
Interleave, preload duratio : 500 ms




Display posts:    

Current time is: 27-Oct 21:38

All times are UTC + 3

You cannot post new topics in this forum
You cannot reply to topics in this forum
You cannot edit your posts in this forum
You cannot delete your posts in this forum
You cannot vote in polls in this forum
You cannot attach files in this forum
You cannot download files in this forum

The site does not give electronic versions of products, and is engaged only in a collecting and cataloguing of the references sent and published at a forum by our readers. If you are the legal owner of any submitted material and do not wish that the reference to it was in our catalogue, contact us and we shall immediately remove her. Files for an exchange on tracker are given by users of a site, and the administration does not bear the responsibility for their maintenance. The request to not fill in the files protected by copyrights, and also files of the illegal maintenance!