[ Today is free to download without increasing Download ]

DL-List and Torrent activity
Информация о фильме
Название: Веселая семейка снова в деле (Сумасшедшая Семейка 2)
Оригинальное название: Yamla Pagla Deewana 2
Год выхода: 2013
Жанр: Боевик, драма, комедия
Режиссер: Сангит Сиван
В ролях: Дхармендра, Санни Деол, Бобби Деол, Неха Шарма, Кристина Ахеева, Анну Капур, Джонни Левер, Сушита Ханна, Эйдан Кук, Анупам Кхер--Описание: Веселая семейка вновь собирается вместе. На этот раз в Великобритании. Теперь веселая троица вдвойне полна задора, веселья и романтики, ведь к ним присоединились две очаровательные девушки.--Скачать:Сэмпл--Выпущено: Индия, Sunny Super Sound, YPD Films
Продолжительность: 02:34:00
Озвучивание: Профессиональный (многоголосый закадровый) - SDI Media (т/к Индия ТВ
Формат: AVI (XviD)
Качество: DVDRip
Видео: 1215 kb/s, 688x288
Звук: AC3, 192 kb/s (2 ch)
Размер: 1.46 GB--

Media Info

Complete name : C:INDIYAVeselaya.Semeyka.Snova.V.Dele.2013.P.HDRip.XviD-soso4eg.avi
Format : AVI
Format/Info : Audio Video Interleave
File size : 1.46 GiB
Duration : 2h 34mn
Overall bit rate : 1 353 Kbps
Movie name : Yamla.Pagla.Deewana-2.2013.HDRip.XviD-soso4eg
Director : soso4eg
Writing application : VirtualDubMod (build 2540/release)
Original source form/Name : Hindi
Comment : пер. SDI Media
ID : 0
Format : MPEG-4 Visual
Format profile : Advanced Simple@L5
Format settings, BVOP : 1
Format settings, QPel : No
Format settings, GMC : No warppoints
Format settings, Matrix : Default (MPEG)
Codec ID : XVID
Codec ID/Hint : XviD
Duration : 2h 34mn
Bit rate : 1 216 Kbps
Width : 688 pixels
Height : 288 pixels
Display aspect ratio : 2.40:1
Frame rate : 24.000 fps
Color space : YUV
Chroma subsampling : 4:2:0
Bit depth : 8 bits
Scan type : Progressive
Compression mode : Lossy
Bits/(Pixel*Frame) : 0.256
Stream size : 1.31 GiB (90%)
Writing library : XviD 1.2.1 (UTC 2008-12-04)
ID : 1
Format : MPEG Audio
Format version : Version 1
Format profile : Layer 3
Mode : Joint stereo
Mode extension : MS Stereo
Codec ID : 55
Codec ID/Hint : MP3
Duration : 2h 34mn
Bit rate mode : Constant
Bit rate : 128 Kbps
Channel(s) : 2 channels
Sampling rate : 48.0 KHz
Compression mode : Lossy
Stream size : 141 MiB (9%)
Alignment : Aligned on interleaves
Interleave, duration : 42 ms (1.00 video frame)
Interleave, preload duratio : 504 ms




Display posts:    

Current time is: 26-Oct 03:29

All times are UTC + 3

You cannot post new topics in this forum
You cannot reply to topics in this forum
You cannot edit your posts in this forum
You cannot delete your posts in this forum
You cannot vote in polls in this forum
You cannot attach files in this forum
You cannot download files in this forum

The site does not give electronic versions of products, and is engaged only in a collecting and cataloguing of the references sent and published at a forum by our readers. If you are the legal owner of any submitted material and do not wish that the reference to it was in our catalogue, contact us and we shall immediately remove her. Files for an exchange on tracker are given by users of a site, and the administration does not bear the responsibility for their maintenance. The request to not fill in the files protected by copyrights, and also files of the illegal maintenance!