[ Сегодня идет свободное скачивание без начисления Download ]


Статистика раздачи
Нет
 
   
 
Top  
 
 
- Учебный центр 1C | Знакомство с платформой 1С 8.3 (2015) PCRec [H.264] - Автор (режиссер): Учебный центр 1C
Жанр: Программирование
Описание:
Цель курса - дать слушателям базовое представление о работе с объектами и механизмами платформы,
сформировать у них практические навыки по конфигурированию и программированию на сквозном примере.
Основной методический подход в обучении на данном курсе состоит в самостоятельном выполнении обучаемыми
демонстрируемых примеров и приемов конфигурирования под руководством опытного преподавателя ("Делай как я").

Содержание:

Введение
Общие положения
Задача
Создание новой информационной базы
Константы
Справочники
Общее описание и назначение
Иерархия
Предопределенные элементы
Реквизиты справочника
Табличная часть
Подчинение
Форма. Форма списка, форма элемента
Печать справочника
Перечисление
Элементы управления формы
Поле
Команда
Группа
Таблица
Обработчик события
Документ
Реквизиты шапки
Формы документа
Реквизиты табличной части
Печать документа. Конструктор печати
Функциональные опции
Подсистемы и интерфейс
Регистр сведений
Продолжительность: 25:16:58
Качество видео: PCRec
Видео: AVC/H.264, 960x720, ~1536 kbps
Аудио: AAC, 2 ch, 2 Ch, 44100 Hz, AAC

Mediainfo:

Общее
Полное имя                               : D:\Знакомство с платформой 8.3\1.mp4
Формат                                   : MPEG-4
Профиль формата                          : Base Media
Идентификатор кодека                     : isom
Размер файла                             : 1,59 Гбайт
Продолжительность                        : 7 ч. 6 м.
Режим общего битрейта                    : Переменный
Общий поток                              : 532 Кбит/сек
Дата кодирования                         : UTC 2014-06-16 10:49:19
Дата пометки                             : UTC 2014-06-16 10:49:19
Программа кодирования                    : FormatFactory : [url=http://www.pcfreetime.com]www.pcfreetime.com[/url]
Видео
Идентификатор                            : 1
Формат                                   : AVC
Формат/Информация                        : Advanced Video Codec
Профиль формата                          : [email protected]
Параметр CABAC формата                   : Нет
Параметр ReFrames формата                : 1 кадр
Идентификатор кодека                     : avc1
Идентификатор кодека/Информация          : Advanced Video Coding
Продолжительность                        : 7 ч. 6 м.
Битрейт                                  : 412 Кбит/сек
Номинальный битрейт                      : 1536 Кбит/сек
Максимальный битрейт                     : 9431 Кбит/сек
Ширина                                   : 960 пикселей
Высота                                   : 720 пикселей
Соотношение сторон                       : 4:3
Режим частоты кадров                     : Постоянный
Частота кадров                           : 24,000 кадра/сек
Цветовое пространство                    : YUV
Субдискретизация насыщенности            : 4:2:0
Битовая глубина                          : 8 бит
Тип развёртки                            : Прогрессивная
Бит/(Пиксели*Кадры)                      : 0.025
Размер потока                            : 1,23 Гбайт (77%)
Библиотека кодирования                   : x264 core 116 r2019 9cc407d
Настройки программы                      : cabac=0 / ref=1 / deblock=1:0:0 / analyse=0x3:0x113 / me=hex / subme=7 / psy=1 / psy_rd=1.00:0.00 / mixed_ref=0 / me_range=16 / chroma_me=1 / trellis=1 / 8x8dct=1 / cqm=0 / deadzone=21,11 / fast_pskip=1 / chroma_qp_offset=-2 / threads=6 / sliced_threads=0 / nr=0 / decimate=1 / interlaced=0 / bluray_compat=0 / constrained_intra=0 / bframes=0 / weightp=2 / keyint=250 / keyint_min=24 / scenecut=40 / intra_refresh=0 / rc_lookahead=40 / rc=abr / mbtree=1 / bitrate=1536 / ratetol=1.0 / qcomp=0.60 / qpmin=0 / qpmax=69 / qpstep=4 / ip_ratio=1.40 / aq=1:1.00
Дата кодирования                         : UTC 2014-06-16 10:49:19
Дата пометки                             : UTC 2014-06-16 10:51:52
Аудио
Идентификатор                            : 2
Формат                                   : AAC
Формат/Информация                        : Advanced Audio Codec
Профиль формата                          : LC
Идентификатор кодека                     : 40
Продолжительность                        : 7 ч. 6 м.
Вид битрейта                             : Переменный
Битрейт                                  : 118 Кбит/сек
Максимальный битрейт                     : 162 Кбит/сек
Каналы                                   : 2 канала
Расположение каналов                     : Front: L R
Частота                                  : 44,1 КГц
Метод сжатия                             : С потерями
Размер потока                            : 359 Мбайт (22%)
Дата кодирования                         : UTC 2014-06-16 10:50:50
Дата пометки                             : UTC 2014-06-16 10:51:52
------------------------------------------------------------------------------
Общее
Полное имя                               : D:\Знакомство с платформой 8.3\2.mp4
Формат                                   : MPEG-4
Профиль формата                          : Base Media
Идентификатор кодека                     : isom
Размер файла                             : 1,81 Гбайт
Продолжительность                        : 9 ч. 53 м.
Режим общего битрейта                    : Переменный
Общий поток                              : 436 Кбит/сек
Дата кодирования                         : UTC 2014-06-17 08:04:05
Дата пометки                             : UTC 2014-06-17 08:04:05
Программа кодирования                    : FormatFactory : [url=http://www.pcfreetime.com]www.pcfreetime.com[/url]
Видео
Идентификатор                            : 1
Формат                                   : AVC
Формат/Информация                        : Advanced Video Codec
Профиль формата                          : [email protected]
Параметр CABAC формата                   : Нет
Параметр ReFrames формата                : 1 кадр
Идентификатор кодека                     : avc1
Идентификатор кодека/Информация          : Advanced Video Coding
Продолжительность                        : 9 ч. 53 м.
Битрейт                                  : 335 Кбит/сек
Номинальный битрейт                      : 1536 Кбит/сек
Максимальный битрейт                     : 15,2 Мбит/сек
Ширина                                   : 960 пикселей
Высота                                   : 720 пикселей
Соотношение сторон                       : 4:3
Режим частоты кадров                     : Постоянный
Частота кадров                           : 24,000 кадра/сек
Цветовое пространство                    : YUV
Субдискретизация насыщенности            : 4:2:0
Битовая глубина                          : 8 бит
Тип развёртки                            : Прогрессивная
Бит/(Пиксели*Кадры)                      : 0.020
Размер потока                            : 1,39 Гбайт (77%)
Библиотека кодирования                   : x264 core 116 r2019 9cc407d
Настройки программы                      : cabac=0 / ref=1 / deblock=1:0:0 / analyse=0x3:0x113 / me=hex / subme=7 / psy=1 / psy_rd=1.00:0.00 / mixed_ref=0 / me_range=16 / chroma_me=1 / trellis=1 / 8x8dct=1 / cqm=0 / deadzone=21,11 / fast_pskip=1 / chroma_qp_offset=-2 / threads=6 / sliced_threads=0 / nr=0 / decimate=1 / interlaced=0 / bluray_compat=0 / constrained_intra=0 / bframes=0 / weightp=2 / keyint=250 / keyint_min=24 / scenecut=40 / intra_refresh=0 / rc_lookahead=40 / rc=abr / mbtree=1 / bitrate=1536 / ratetol=1.0 / qcomp=0.60 / qpmin=0 / qpmax=69 / qpstep=4 / ip_ratio=1.40 / aq=1:1.00
Дата кодирования                         : UTC 2014-06-17 08:04:05
Дата пометки                             : UTC 2014-06-17 08:07:39
Аудио
Идентификатор                            : 2
Формат                                   : AAC
Формат/Информация                        : Advanced Audio Codec
Профиль формата                          : LC
Идентификатор кодека                     : 40
Продолжительность                        : 9 ч. 53 м.
Вид битрейта                             : Переменный
Битрейт                                  : 99,4 Кбит/сек
Максимальный битрейт                     : 161 Кбит/сек
Каналы                                   : 2 канала
Расположение каналов                     : Front: L R
Частота                                  : 44,1 КГц
Метод сжатия                             : С потерями
Размер потока                            : 422 Мбайт (23%)
Дата кодирования                         : UTC 2014-06-17 08:05:38
Дата пометки                             : UTC 2014-06-17 08:07:39
------------------------------------------------------------------------------
Общее
Полное имя                               : D:\Знакомство с платформой 8.3\3.mp4
Формат                                   : MPEG-4
Профиль формата                          : Base Media
Идентификатор кодека                     : isom
Размер файла                             : 1,81 Гбайт
Продолжительность                        : 8 ч. 15 м.
Режим общего битрейта                    : Переменный
Общий поток                              : 522 Кбит/сек
Дата кодирования                         : UTC 2014-06-18 10:32:38
Дата пометки                             : UTC 2014-06-18 10:32:38
Программа кодирования                    : FormatFactory : [url=http://www.pcfreetime.com]www.pcfreetime.com[/url]
Видео
Идентификатор                            : 1
Формат                                   : AVC
Формат/Информация                        : Advanced Video Codec
Профиль формата                          : [email protected]
Параметр CABAC формата                   : Нет
Параметр ReFrames формата                : 1 кадр
Идентификатор кодека                     : avc1
Идентификатор кодека/Информация          : Advanced Video Coding
Продолжительность                        : 8 ч. 15 м.
Битрейт                                  : 432 Кбит/сек
Номинальный битрейт                      : 1536 Кбит/сек
Максимальный битрейт                     : 11,3 Мбит/сек
Ширина                                   : 960 пикселей
Высота                                   : 720 пикселей
Соотношение сторон                       : 4:3
Режим частоты кадров                     : Постоянный
Частота кадров                           : 24,000 кадра/сек
Цветовое пространство                    : YUV
Субдискретизация насыщенности            : 4:2:0
Битовая глубина                          : 8 бит
Тип развёртки                            : Прогрессивная
Бит/(Пиксели*Кадры)                      : 0.026
Размер потока                            : 1,49 Гбайт (83%)
Библиотека кодирования                   : x264 core 116 r2019 9cc407d
Настройки программы                      : cabac=0 / ref=1 / deblock=1:0:0 / analyse=0x3:0x113 / me=hex / subme=7 / psy=1 / psy_rd=1.00:0.00 / mixed_ref=0 / me_range=16 / chroma_me=1 / trellis=1 / 8x8dct=1 / cqm=0 / deadzone=21,11 / fast_pskip=1 / chroma_qp_offset=-2 / threads=6 / sliced_threads=0 / nr=0 / decimate=1 / interlaced=0 / bluray_compat=0 / constrained_intra=0 / bframes=0 / weightp=2 / keyint=250 / keyint_min=24 / scenecut=40 / intra_refresh=0 / rc_lookahead=40 / rc=abr / mbtree=1 / bitrate=1536 / ratetol=1.0 / qcomp=0.60 / qpmin=0 / qpmax=69 / qpstep=4 / ip_ratio=1.40 / aq=1:1.00
Дата кодирования                         : UTC 2014-06-18 10:32:38
Дата пометки                             : UTC 2014-06-18 10:36:21
Аудио
Идентификатор                            : 2
Формат                                   : AAC
Формат/Информация                        : Advanced Audio Codec
Профиль формата                          : LC
Идентификатор кодека                     : 40
Продолжительность                        : 8 ч. 15 м.
Вид битрейта                             : Переменный
Битрейт                                  : 88,3 Кбит/сек
Максимальный битрейт                     : 145 Кбит/сек
Каналы                                   : 2 канала
Расположение каналов                     : Front: L R
Частота                                  : 44,1 КГц
Метод сжатия                             : С потерями
Размер потока                            : 313 Мбайт (17%)
Дата кодирования                         : UTC 2014-06-18 10:34:22
Дата пометки                             : UTC 2014-06-18 10:36:21
Скриншоты:

Остальные скриншоты

[Цитировать]



Показать сообщения:    

Текущее время: 06-Дек 13:19

Часовой пояс: UTC + 3


Вы не можете начинать темы
Вы не можете отвечать на сообщения
Вы не можете редактировать свои сообщения
Вы не можете удалять свои сообщения
Вы не можете голосовать в опросах
Вы не можете прикреплять файлы к сообщениям
Вы не можете скачивать файлы

!ВНИМАНИЕ!
Сайт не предоставляет электронные версии произведений, а занимается лишь коллекционированием и каталогизацией ссылок, присылаемых и публикуемых на форуме нашими читателями. Если вы являетесь правообладателем какого-либо представленного материала и не желаете, чтобы ссылка на него находилась в нашем каталоге, свяжитесь с нами, и мы незамедлительно удалим ее. Файлы для обмена на трекере предоставлены пользователями сайта, и администрация не несет ответственности за их содержание. Просьба не заливать файлы, защищенные авторскими правами, а также файлы нелегального содержания!