[ Сегодня идет свободное скачивание без начисления Download ]


Статистика раздачи
Нет
 
   
 
Top  
 
 
- Связанные местью / Reversal (2015) WEB-DL - Производство: США | Dark Factory Entertainment, Romark Entertainment
Жанр: Ужасы, Триллер
Режиссер: Хосе Мануэль Кравиотто
Продюсер: Алекс Гарсиа, Родольфо Маркес, Даниэль Посада
Актеры: Тина Ивлев, Ричард Тайсон, Бьянка Малино, Эми Окуда, Стефани Чарльз, Фиорелла Гарсиа, Дастин Куик, Скотт Вэнс, Рик Сарабиа, Нихан Гар
Описание:
Фильм повествует о молодой девушке, которую похитили и посадили на цепь в темном, сыром подвале для извращенных утех. Однажды ей удается вырваться, и месть становится ее главной целью. Но прежде, чем поставить точку, она должна попытаться спасти остальных узниц.

Дата мировой премьеры: 23 января 2015
Продолжительность: 01:19:34
Качество видео: WEB-DL [profile LQ]
Перевод: Одноголосый закадровый, любительский
Видео: AVC/H.264, 1280x532 (2.40:1), 23,976 fps, ~3940 kbps, 0.241 bit
/pixel
Аудио №1: 48 kHz, AC3, 2 ch, ~192 kbps, CBR | VO (русский)
Аудио №2: 48 kHz, AC3, 6 ch, ~384 kbps, CBR | Английский
Семпл: Скачать

MI

General
Unique ID                      : 174291485940101971273744545424159019341 (0x831F51B5EFB6F58B81D32AA4E5A8114D)
Complete name                  : C:\Фильмы\Reversal.2015.L1.WEB-DL.720p.mkv
Format                         : Matroska
Format version                 : Version 4 / Version 2
File size                      : 2.56 GiB
Duration                       : 1h 19mn
Overall bit rate               : 4 608 Kbps
Encoded date                   : UTC 2015-06-30 20:38:46
Writing application            : mkvmerge v6.1.0 ('Old Devil') built on Mar  4 2013 09:10:42
Writing library                : libebml v1.3.0 + libmatroska v1.4.0
Video
ID                             : 1
Format                         : AVC
Format/Info                    : Advanced Video Codec
Format profile                 : Main@L3.1
Format settings, CABAC         : No
Format settings, ReFrames      : 2 frames
Codec ID                       : V_MPEG4/ISO/AVC
Duration                       : 1h 19mn
Bit rate                       : 3 940 Kbps
Width                          : 1 280 pixels
Height                         : 532 pixels
Display aspect ratio           : 2.40:1
Frame rate mode                : Constant
Frame rate                     : 23.976 fps
Color space                    : YUV
Chroma subsampling             : 4:2:0
Bit depth                      : 8 bits
Scan type                      : Progressive
Bits/(Pixel*Frame)             : 0.241
Stream size                    : 2.19 GiB (86%)
Language                       : English
Default                        : Yes
Forced                         : No
Color primaries                : BT.709
Transfer characteristics       : BT.709
Matrix coefficients            : BT.709
Audio #1
ID                             : 2
Format                         : AC-3
Format/Info                    : Audio Coding 3
Mode extension                 : CM (complete main)
Format settings, Endianness    : Big
Codec ID                       : A_AC3
Duration                       : 1h 19mn
Bit rate mode                  : Constant
Bit rate                       : 192 Kbps
Channel(s)                     : 2 channels
Channel positions              : Front: L R
Sampling rate                  : 48.0 KHz
Bit depth                      : 16 bits
Compression mode               : Lossy
Stream size                    : 109 MiB (4%)
Language                       : Russian
Default                        : Yes
Forced                         : No
Audio #2
ID                             : 3
Format                         : AC-3
Format/Info                    : Audio Coding 3
Mode extension                 : CM (complete main)
Format settings, Endianness    : Big
Codec ID                       : A_AC3
Duration                       : 1h 19mn
Bit rate mode                  : Constant
Bit rate                       : 384 Kbps
Channel(s)                     : 6 channels
Channel positions              : Front: L C R, Side: L R, LFE
Sampling rate                  : 48.0 KHz
Bit depth                      : 16 bits
Compression mode               : Lossy
Stream size                    : 219 MiB (8%)
Language                       : English
Default                        : No
Forced                         : No
Text
ID                             : 4
Format                         : UTF-8
Codec ID                       : S_TEXT/UTF8
Codec ID/Info                  : UTF-8 Plain Text
Language                       : English
Default                        : No
Forced                         : No
Menu
00:00:00.000                   : en:1
00:19:25.000                   : en:2
00:31:49.000                   : en:3
00:44:17.000                   : en:4
00:54:13.000                   : en:5
01:06:30.000                   : en:6
01:16:07.000                   : en:7

Скриншоты

Время раздачи: 08:00-23:00

[Цитировать]



Показать сообщения:    

Текущее время: 09-Дек 10:40

Часовой пояс: UTC + 3


Вы не можете начинать темы
Вы не можете отвечать на сообщения
Вы не можете редактировать свои сообщения
Вы не можете удалять свои сообщения
Вы не можете голосовать в опросах
Вы не можете прикреплять файлы к сообщениям
Вы не можете скачивать файлы

!ВНИМАНИЕ!
Сайт не предоставляет электронные версии произведений, а занимается лишь коллекционированием и каталогизацией ссылок, присылаемых и публикуемых на форуме нашими читателями. Если вы являетесь правообладателем какого-либо представленного материала и не желаете, чтобы ссылка на него находилась в нашем каталоге, свяжитесь с нами, и мы незамедлительно удалим ее. Файлы для обмена на трекере предоставлены пользователями сайта, и администрация не несет ответственности за их содержание. Просьба не заливать файлы, защищенные авторскими правами, а также файлы нелегального содержания!