[ Сегодня идет свободное скачивание без начисления Download ]


Статистика раздачи
Скачал: [ 1 ]
 
   
 
Top  
 
 

Иван Царевич и Серый Волк

Название: Иван Царевич и Серый Волк
Год выпуска: 2011
Страна: Россия
Жанр: мультфильм, фэнтези, комедия, приключения, семейный
Продолжительность: 01:25:58
Перевод: Оригинальный
Режиссер: Владимир Торопчин
В ролях: Никита Ефремов (Иван, озвучка), Татьяна Бунина (Василиса, озвучка), Артур Смольянинов (Серый Волк, озвучка), Иван Охлобыстин (Царь, озвучка), Виктор Сухоруков (первый министр, озвучка), Сергей Гармаш (Змей Горыныч, озвучка), Михаил Боярский (Кот, озвучка), Сергей Русскин (Кощей Бессмертный, озвучка), Александр Боярский (Тень, озвучка), Лия Ахеджакова (Баба Яга, озвучка), Кристина Асмус (Белочка, озвучка), Олег Куликович (Волшебный Клубок, озвучка)
Описание:
Увлекательная история от создателей богатырской трилогии, в которой героев русских народных сказок ждут новые приключения, опасности и забавные ситуации.
Рейтинг

Качество: BDRip-AVC 60fps
Формат: MKV
Видео кодек: AVC
Аудио кодек:AC3
Видео: AVC, 1024x552 (1.855), 5100 kbps, 59,940 fps, 0,151 bpp
Аудио: русский / AC3 / 5.1 / 48 kHz / 640 kbps / 16 bit
Навигация по главам: есть

MI

General
Unique ID : 196100226220444384382206327598341836644 (0x9387879F865E7C249D33502C59BE4F64)
Complete name : A:\Фильмы\Иван Царевич и Серый Волк BDRip-AVC 60fps R.G. HD-Films\Иван Царевич и Серый Волк 1.mkv
Format : Matroska
Format version : Version 4 / Version 2
File size : 3.44 GiB
Duration : 1h 25mn
Overall bit rate : 5 734 Kbps
Movie name : Tiberiumsun69
Encoded date : UTC 2015-07-04 05:26:37
Writing application : mkvmerge v7.9.0 ('Birds') 64bit
Writing library : libebml v1.3.1 + libmatroska v1.4.2
Attachment : Yes
Video
ID : 1
Format : AVC
Format/Info : Advanced Video Codec
Format profile : High@L4.1
Format settings, CABAC : Yes
Format settings, ReFrames : 4 frames
Codec ID : V_MPEG4/ISO/AVC
Duration : 1h 25mn
Bit rate : 5 100 Kbps
Width : 1 024 pixels
Height : 552 pixels
Display aspect ratio : 1.855
Frame rate : 59.940 fps
Color space : YUV
Chroma subsampling : 4:2:0
Bit depth : 8 bits
Scan type : Progressive
Bits/(Pixel*Frame) : 0.151
Stream size : 2.99 GiB (87%)
Title : Tiberiumsun69
Writing library : x264 core 146 r2538 121396c
Encoding settings : cabac=1 / ref=4 / deblock=1:0:0 / analyse=0x3:0x113 / me=umh / subme=9 / psy=1 / psy_rd=1.00:0.10 / mixed_ref=1 / me_range=32 / chroma_me=1 / trellis=2 / 8x8dct=1 / cqm=0 / deadzone=21,11 / fast_pskip=0 / chroma_qp_offset=-3 / threads=12 / lookahead_threads=3 / sliced_threads=0 / nr=0 / decimate=1 / interlaced=0 / bluray_compat=0 / constrained_intra=0 / bframes=16 / b_pyramid=2 / b_adapt=2 / b_bias=0 / direct=3 / weightb=1 / open_gop=0 / weightp=2 / keyint=600 / keyint_min=59 / scenecut=40 / intra_refresh=0 / rc_lookahead=60 / rc=2pass / mbtree=1 / bitrate=5100 / ratetol=1.0 / qcomp=0.60 / qpmin=0 / qpmax=69 / qpstep=4 / cplxblur=20.0 / qblur=0.5 / vbv_maxrate=50000 / vbv_bufsize=62500 / nal_hrd=none / filler=0 / ip_ratio=1.40 / aq=1:1.00
Language : English
Default : Yes
Forced : No
Audio
ID : 2
Format : AC-3
Format/Info : Audio Coding 3
Mode extension : CM (complete main)
Codec ID : A_AC3
Duration : 1h 25mn
Bit rate mode : Constant
Bit rate : 640 Kbps
Channel(s) : 6 channels
Channel positions : Front: L C R, Side: L R, LFE
Sampling rate : 48.0 KHz
Bit depth : 16 bits
Compression mode : Lossy
Stream size : 394 MiB (11%)
Title : Оригинал
Language : Russian
Default : Yes
Forced : No
Menu
00:00:00.000 : en:Chapter 1
00:08:19.916 : en:Chapter 2
00:15:17.041 : en:Chapter 3
00:22:17.419 : en:Chapter 4
00:29:20.925 : en:Chapter 5
00:36:09.500 : en:Chapter 6
00:45:12.918 : en:Chapter 7
00:53:30.790 : en:Chapter 8
01:00:45.433 : en:Chapter 9
01:06:53.134 : en:Chapter 10
01:14:10.988 : en:Chapter 11
01:21:09.656 : en:Chapter 12

Иван Царевич и Серый Волк 2

Название: Иван Царевич и Серый Волк 2
Год выпуска: 2013
Страна: Россия
Жанр: мультфильм, приключения, семейный, фэнтези
Продолжительность: 01:12:37
Перевод: Оригинальный
Режиссер: Владимир Торопчин
В ролях: Никита Ефремов (Иван, озвучка), Татьяна Бунина (Василиса, озвучка), Иван Охлобыстин (Царь, озвучка), Михаил Боярский (Кот Ученый, озвучка), Ирина Рахманова (Лунная лягушка, озвучка), Александр Боярский (Волк, озвучка), Екатерина Гороховская (Наина, озвучка), Елена Шульман (Русалка, озвучка), Максим Сергеев (Черномор, озвучка)
Описание:
В Тридевятом царстве, где живут наши герои - тишь, да благодать. Иван женился на Василисе, и «жили они долго и счастливо», да не тут-то было. Иван целыми днями пропадает с Волком на службе - укрепляет рубежи и оборонную мощь, мечтает перевести стрелки часов на семь часов назад, чтобы меньше спать, и больше работать. А Василисе - скучно, как всем девушкам, ей хочется романтики, ну, такой, как в сказках. И тогда она решает организовать свое похищение... Однако, когда такое бывало, что в сказках все получалось так, как задумывалось?
Рейтинг

Качество: BDRip-AVC 60fps
Формат: MKV
Видео кодек: AVC
Аудио кодек:AC3
Видео: AVC, 1024x576 (16:9), 5100 kbps, 59,997 fps, 0,144 bpp
Аудио: русский / AC3 / 5.1 / 48 kHz / 640 kbps / 16 bit
Навигация по главам: есть

MI

General
Unique ID : 189657535816487505385933118696980058623 (0x8EAEB6762DCBEBA29B2A8C3C40C991FF)
Complete name : A:\Фильмы\Иван Царевич и Серый Волк BDRip-AVC 60fps R.G. HD-Films\Иван Царевич и Серый Волк 2.mkv
Format : Matroska
Format version : Version 4 / Version 2
File size : 2.91 GiB
Duration : 1h 12mn
Overall bit rate : 5 742 Kbps
Movie name : Tiberiumsun69
Encoded date : UTC 2015-07-04 05:31:18
Writing application : mkvmerge v7.9.0 ('Birds') 64bit
Writing library : libebml v1.3.1 + libmatroska v1.4.2
Attachment : Yes
Video
ID : 1
Format : AVC
Format/Info : Advanced Video Codec
Format profile : High@L4.1
Format settings, CABAC : Yes
Format settings, ReFrames : 4 frames
Codec ID : V_MPEG4/ISO/AVC
Duration : 1h 12mn
Bit rate : 5 100 Kbps
Width : 1 024 pixels
Height : 576 pixels
Display aspect ratio : 16:9
Frame rate : 59.997 fps
Color space : YUV
Chroma subsampling : 4:2:0
Bit depth : 8 bits
Scan type : Progressive
Bits/(Pixel*Frame) : 0.144
Stream size : 2.53 GiB (87%)
Title : Tiberiumsun69
Writing library : x264 core 146 r2538 121396c
Encoding settings : cabac=1 / ref=4 / deblock=1:0:0 / analyse=0x3:0x113 / me=umh / subme=9 / psy=1 / psy_rd=1.00:0.10 / mixed_ref=1 / me_range=32 / chroma_me=1 / trellis=2 / 8x8dct=1 / cqm=0 / deadzone=21,11 / fast_pskip=0 / chroma_qp_offset=-3 / threads=12 / lookahead_threads=3 / sliced_threads=0 / nr=0 / decimate=1 / interlaced=0 / bluray_compat=0 / constrained_intra=0 / bframes=16 / b_pyramid=2 / b_adapt=2 / b_bias=0 / direct=3 / weightb=1 / open_gop=0 / weightp=2 / keyint=600 / keyint_min=59 / scenecut=40 / intra_refresh=0 / rc_lookahead=60 / rc=2pass / mbtree=1 / bitrate=5100 / ratetol=1.0 / qcomp=0.60 / qpmin=0 / qpmax=69 / qpstep=4 / cplxblur=20.0 / qblur=0.5 / vbv_maxrate=50000 / vbv_bufsize=62500 / nal_hrd=none / filler=0 / ip_ratio=1.40 / aq=1:1.00
Language : English
Default : Yes
Forced : No
Audio
ID : 2
Format : AC-3
Format/Info : Audio Coding 3
Mode extension : CM (complete main)
Codec ID : A_AC3
Duration : 1h 12mn
Bit rate mode : Constant
Bit rate : 640 Kbps
Channel(s) : 6 channels
Channel positions : Front: L C R, Side: L R, LFE
Sampling rate : 48.0 KHz
Bit depth : 16 bits
Compression mode : Lossy
Stream size : 332 MiB (11%)
Title : Оригинал
Language : Russian
Default : Yes
Forced : No
Menu
00:00:00.000 : en:Chapter 1
00:08:56.291 : en:Chapter 2
00:17:20.708 : en:Chapter 3
00:30:52.708 : en:Chapter 4
00:42:35.791 : en:Chapter 5
01:00:23.875 : en:Chapter 6

[Цитировать]



Показать сообщения:    

Текущее время: 28-Апр 18:13

Часовой пояс: UTC + 6


Вы не можете начинать темы
Вы не можете отвечать на сообщения
Вы не можете редактировать свои сообщения
Вы не можете удалять свои сообщения
Вы не можете голосовать в опросах
Вы не можете прикреплять файлы к сообщениям
Вы не можете скачивать файлы

!ВНИМАНИЕ!
Сайт не предоставляет электронные версии произведений, а занимается лишь коллекционированием и каталогизацией ссылок, присылаемых и публикуемых на форуме нашими читателями. Если вы являетесь правообладателем какого-либо представленного материала и не желаете, чтобы ссылка на него находилась в нашем каталоге, свяжитесь с нами, и мы незамедлительно удалим ее. Файлы для обмена на трекере предоставлены пользователями сайта, и администрация не несет ответственности за их содержание. Просьба не заливать файлы, защищенные авторскими правами, а также файлы нелегального содержания!