[ Сегодня идет свободное скачивание без начисления Download ]


Статистика раздачи
Нет
 
   
 
Top  
 
 
- Наёмник: Отпущение грехов / Absolution (2015) BDRip
« He has a code he's never broken »
- Производство: США, Румыния | Actionhouse Pictures, Castel Film Romania
Жанр: Боевик, Триллер, Криминал, Приключения
Режиссер: Киони Ваксман
Продюсер: Агустин, Бинь Дань, Филлип Б. Голдфайн
Актеры: Стивен Сигал, Байрон Манн, Ховард Делл, Адина Стетцу, Винни Джонс, Джош Барнетт, Мария Бата, Серджиу Костаке, Джордж Ремис
Описание:
Когда на пути наёмного убийцы попадается девушка, убегающая от рук опасного босса мафии с мощными политическими связями и управляющий бизнесом по торговле людьми, он разрывается между её защитой и верностью государству, которое его наняло.

Дата мировой премьеры: 21 февраля 2015
Продолжительность: 01:31:27
Качество видео: BDRip
Перевод: Одноголосый закадровый, любительский
Озвучка / Автор перевода: Хихикающий доктор
Язык субтитров: Английский
Вид субтитров: Вшитые, отключаемые
Видео: AVC/H.264, 1920x1080 (16:9), 25.000 fps, ~9111 kbps, 0.176 bit/ pixel
Аудио №1: 48 kHz, DTS, 6 ch, ~1510, CBR | VO (русский)
Аудио №2: 48 kHz, DTS, 6 ch, ~1510, CBR | Английский
Семпл: Скачать

MI

General
Unique ID                      : 233261533151628753170756226859747717962 (0xAF7C89831FAEA4E7B1A368F889E7334A)
Complete name                  : C:\Фильмы\Absolution.2015.BDRip.1080p.mkv
Format                         : Matroska
Format version                 : Version 4 / Version 2
File size                      : 7.75 GiB
Duration                       : 1h 31mn
Overall bit rate               : 12.1 Mbps
Movie name                     : Absolution 2015 - NovaLan
Encoded date                   : UTC 2015-07-06 01:12:33
Writing application            : mkvmerge v8.1.0 ('Psychedelic Postcard') 64bit
Writing library                : libebml v1.3.1 + libmatroska v1.4.2
DURATION                       : 01:28:57.978000000
NUMBER_OF_FRAMES               : 609
NUMBER_OF_BYTES                : 23267
_STATISTICS_WRITING_APP        : mkvmerge v8.1.0 ('Psychedelic Postcard') 64bit
_STATISTICS_WRITING_DATE_UTC   : 2015-07-06 01:12:33
_STATISTICS_TAGS               : BPS DURATION NUMBER_OF_FRAMES NUMBER_OF_BYTES
Video
ID                             : 1
Format                         : AVC
Format/Info                    : Advanced Video Codec
Format profile                 : [email protected]
Format settings, CABAC         : Yes
Format settings, ReFrames      : 4 frames
Codec ID                       : V_MPEG4/ISO/AVC
Duration                       : 1h 31mn
Bit rate                       : 9 111 Kbps
Width                          : 1 920 pixels
Height                         : 1 080 pixels
Display aspect ratio           : 16:9
Frame rate mode                : Constant
Frame rate                     : 25.000 fps
Color space                    : YUV
Chroma subsampling             : 4:2:0
Bit depth                      : 8 bits
Scan type                      : Progressive
Bits/(Pixel*Frame)             : 0.176
Stream size                    : 5.67 GiB (73%)
Title                          : Sergei7721
Writing library                : x264 core 146 r2538 121396c
Encoding settings              : cabac=1 / ref=4 / deblock=1:-1:-1 / analyse=0x3:0x113 / me=umh / subme=11 / psy=1 / psy_rd=1.00:0.20 / mixed_ref=1 / me_range=24 / chroma_me=1 / trellis=2 / 8x8dct=1 / cqm=0 / deadzone=21,11 / fast_pskip=0 / chroma_qp_offset=-3 / threads=12 / lookahead_threads=1 / sliced_threads=0 / nr=0 / decimate=0 / interlaced=0 / bluray_compat=0 / constrained_intra=0 / bframes=6 / b_pyramid=2 / b_adapt=2 / b_bias=0 / direct=3 / weightb=1 / open_gop=0 / weightp=2 / keyint=250 / keyint_min=25 / scenecut=40 / intra_refresh=0 / rc_lookahead=40 / rc=2pass / mbtree=0 / bitrate=9111 / ratetol=1.0 / qcomp=0.60 / qpmin=0 / qpmax=69 / qpstep=4 / cplxblur=20.0 / qblur=0.5 / vbv_maxrate=50000 / vbv_bufsize=62500 / nal_hrd=none / filler=0 / ip_ratio=1.40 / pb_ratio=1.30 / aq=1:1.00
Default                        : Yes
Forced                         : No
DURATION                       : 01:31:27.160000000
NUMBER_OF_FRAMES               : 137179
NUMBER_OF_BYTES                : 6247580201
_STATISTICS_WRITING_APP        : mkvmerge v8.1.0 ('Psychedelic Postcard') 64bit
_STATISTICS_WRITING_DATE_UTC   : 2015-07-06 01:12:33
_STATISTICS_TAGS               : BPS DURATION NUMBER_OF_FRAMES NUMBER_OF_BYTES
Audio #1
ID                             : 2
Format                         : DTS
Format/Info                    : Digital Theater Systems
Mode                           : 16
Format settings, Endianness    : Big
Codec ID                       : A_DTS
Duration                       : 1h 31mn
Bit rate mode                  : Constant
Bit rate                       : 1 509 Kbps
Channel(s)                     : 6 channels
Channel positions              : Front: L C R, Side: L R, LFE
Sampling rate                  : 48.0 KHz
Bit depth                      : 16 bits
Compression mode               : Lossy
Stream size                    : 987 MiB (12%)
Language                       : Russian
Default                        : Yes
Forced                         : No
Audio #2
ID                             : 3
Format                         : DTS
Format/Info                    : Digital Theater Systems
Mode                           : 16
Format settings, Endianness    : Big
Codec ID                       : A_DTS
Duration                       : 1h 31mn
Bit rate mode                  : Constant
Bit rate                       : 1 509 Kbps
Channel(s)                     : 6 channels
Channel positions              : Front: L C R, Side: L R, LFE
Sampling rate                  : 48.0 KHz
Bit depth                      : 16 bits
Compression mode               : Lossy
Stream size                    : 987 MiB (12%)
Language                       : English
Default                        : No
Forced                         : No
Text
ID                             : 4
Format                         : UTF-8
Codec ID                       : S_TEXT/UTF8
Codec ID/Info                  : UTF-8 Plain Text
Language                       : English
Default                        : No
Forced                         : No
Menu
00:00:00.000                   : en:00:00:00.000
00:04:10.127                   : en:00:04:10.127
00:09:44.312                   : en:00:09:44.312
00:17:37.077                   : en:00:17:37.077
00:27:28.443                   : en:00:27:28.443
00:37:51.868                   : en:00:37:51.868
00:50:02.966                   : en:00:50:02.966
01:00:26.112                   : en:01:00:26.112
01:08:02.239                   : en:01:08:02.239
01:14:37.554                   : en:01:14:37.554
01:21:15.183                   : en:01:21:15.183
01:28:28.466                   : en:01:28:28.466
Скриншоты:
Время раздачи: 08:00-23:00

[Цитировать]



Показать сообщения:    

Текущее время: 04-Дек 09:15

Часовой пояс: UTC + 3


Вы не можете начинать темы
Вы не можете отвечать на сообщения
Вы не можете редактировать свои сообщения
Вы не можете удалять свои сообщения
Вы не можете голосовать в опросах
Вы не можете прикреплять файлы к сообщениям
Вы не можете скачивать файлы

!ВНИМАНИЕ!
Сайт не предоставляет электронные версии произведений, а занимается лишь коллекционированием и каталогизацией ссылок, присылаемых и публикуемых на форуме нашими читателями. Если вы являетесь правообладателем какого-либо представленного материала и не желаете, чтобы ссылка на него находилась в нашем каталоге, свяжитесь с нами, и мы незамедлительно удалим ее. Файлы для обмена на трекере предоставлены пользователями сайта, и администрация не несет ответственности за их содержание. Просьба не заливать файлы, защищенные авторскими правами, а также файлы нелегального содержания!