[ Сегодня идет свободное скачивание без начисления Download ]


Статистика раздачи
Нет
 
   
 
Top  
 
 
Название: Ева
Оригинальное название: Eva
Год выхода: 2010
Жанр: Драма
Режиссер: Адриан Попович
В ролях: Винсент Риган, Эми Бет Хэйес, Майкл Айронсайд, Патрик Бергин, Эмили Хэмилтон, Дастин Миллиган, Майя Моргенштерн, Андрей Финти, Влад Радеску, Клаудиу Блеонц--О фильме:
Ева встретила Тюдора в свой 16-й день рождения и полюбила его на всю жизнь. Но на их отношения влияли постоянные загадочные исчезновения молодого человека. Во время одного из таких исчезновений Ева выходит замуж за барона Освальда Фон Зееле. Но когда Тюдор вновь возвращается, чувства между ним и Евой вспыхивают с новой силой. Они проводят вместе незабывамое лето. Ева забеременела, ее брак разрушен. Тюдор снова исчезает, а в Европе начинается война…-- --Страна: Румыния, Artis Film
Продолжительность: 01:51:05
Перевод: Профессиональный двухголосый--Кодек: H.264
Качество: BDRip 720p
Видео: MPEG-4 AVC, 5222 Кбит/с, 1280x716, 23.976 кадр/с
Звук: Русский (AC3, 2 ch, 224 Кбит/с), английский (DTS, 6 ch, 755 Кбит/с)--

Инфо-файл

Полное имя : D:Eva.2010.x264.BDRip.720p.NovaLan.mkv
Формат : Matroska
Версия формата : Version 4 / Version 2
Размер файла : 4,82 Гбайт
Продолжительность : 1 ч. 51 м.
Общий поток : 6213 Кбит/сек
Название фильма : Eva 2010 - NovaLan
Дата кодирования : UTC 2015-07-10 02:47:46
Программа кодирования : mkvmerge v8.1.0 ('Psychedelic Postcard') 64bit
Библиотека кодирования : libebml v1.3.1 + libmatroska v1.4.2
DURATION : 01:51:06.006000000
NUMBER_OF_FRAMES : 624938
NUMBER_OF_BYTES : 639936512
_STATISTICS_WRITING_APP : mkvmerge v8.1.0 ('Psychedelic Postcard') 64bit
_STATISTICS_WRITING_DATE_UTC : 2015-07-10 02:47:46
_STATISTICS_TAGS : BPS DURATION NUMBER_OF_FRAMES NUMBER_OF_BYTES
Видео
Идентификатор : 1
Формат : AVC
Формат/Информация : Advanced Video Codec
Профиль формата : High@L4.1
Параметр CABAC формата : Да
Параметр ReFrames формата : 8 кадров
Идентификатор кодека : V_MPEG4/ISO/AVC
Продолжительность : 1 ч. 51 м.
Битрейт : 5222 Кбит/сек
Ширина : 1280 пикселей
Высота : 716 пикселей
Соотношение сторон : 16:9
Частота кадров : 23,976 кадра/сек
Цветовое пространство : YUV
Субдискретизация насыщенности : 4:2:0
Битовая глубина : 8 бит
Тип развёртки : Прогрессивная
Бит/(Пиксели*Кадры) : 0.238
Размер потока : 3,97 Гбайт (82%)
Заголовок : Sergei7721
Библиотека кодирования : x264 core 146 r2538 121396c
Настройки программы : cabac=1 / ref=8 / deblock=1:-1:-1 / analyse=0x3:0x113 / me=umh / subme=11 / psy=1 / psy_rd=1.00:0.20 / mixed_ref=1 / me_range=32 / chroma_me=1 / trellis=2 / 8x8dct=1 / cqm=0 / deadzone=21,11 / fast_pskip=0 / chroma_qp_offset=-3 / threads=12 / lookahead_threads=1 / sliced_threads=0 / nr=0 / decimate=0 / interlaced=0 / bluray_compat=0 / constrained_intra=0 / bframes=6 / b_pyramid=2 / b_adapt=2 / b_bias=0 / direct=3 / weightb=1 / open_gop=0 / weightp=2 / keyint=240 / keyint_min=23 / scenecut=40 / intra_refresh=0 / rc_lookahead=40 / rc=2pass / mbtree=0 / bitrate=5222 / ratetol=1.0 / qcomp=0.60 / qpmin=0 / qpmax=69 / qpstep=4 / cplxblur=20.0 / qblur=0.5 / vbv_maxrate=50000 / vbv_bufsize=62500 / nal_hrd=none / filler=0 / ip_ratio=1.40 / pb_ratio=1.30 / aq=1:1.00
Default : Да
Forced : Нет
DURATION : 01:51:05.993000000
NUMBER_OF_FRAMES : 159824
NUMBER_OF_BYTES : 4348101527
_STATISTICS_WRITING_APP : mkvmerge v8.1.0 ('Psychedelic Postcard') 64bit
_STATISTICS_WRITING_DATE_UTC : 2015-07-10 02:47:46
_STATISTICS_TAGS : BPS DURATION NUMBER_OF_FRAMES NUMBER_OF_BYTES
Аудио #1
Идентификатор : 2
Формат : AC-3
Формат/Информация : Audio Coding 3
Профиль формата : Dolby Digital
Расширение режима : CM (complete main)
Параметр Endianness формата : Big
Идентификатор кодека : A_AC3
Продолжительность : 1 ч. 51 м.
Вид битрейта : Постоянный
Битрейт : 224 Кбит/сек
Каналы : 2 канала
Расположение каналов : Front: L R
Частота : 48,0 КГц
Битовая глубина : 16 бит
Метод сжатия : С потерями
Размер потока : 178 Мбайт (4%)
Язык : Russian
Default : Да
Forced : Нет
Аудио #2
Идентификатор : 3
Формат : DTS
Формат/Информация : Digital Theater Systems
Идентификатор кодека : A_DTS
Продолжительность : 1 ч. 51 м.
Вид битрейта : Постоянный
Битрейт : 755 Кбит/сек
Каналы : 6 каналов
Расположение каналов : Front: L C R, Side: L R, LFE
Частота : 48,0 КГц
Битовая глубина : 24 бит
Метод сжатия : С потерями
Размер потока : 600 Мбайт (12%)
Язык : English
Default : Нет
Forced : Нет
Меню
00:00:00.000 : en:00:00:00.000
00:09:31.029 : en:00:09:31.029
00:19:43.641 : en:00:19:43.641
00:28:17.946 : en:00:28:17.946
00:36:54.003 : en:00:36:54.003
00:49:54.950 : en:00:49:54.950
00:55:40.462 : en:00:55:40.462
01:02:40.924 : en:01:02:40.924
01:15:29.817 : en:01:15:29.817
01:25:45.932 : en:01:25:45.932
01:35:28.640 : en:01:35:28.640
01:46:46.567 : en:01:46:46.567
--

Скриншоты

[Цитировать]



Показать сообщения:    

Текущее время: 08-Дек 07:07

Часовой пояс: UTC + 3


Вы не можете начинать темы
Вы не можете отвечать на сообщения
Вы не можете редактировать свои сообщения
Вы не можете удалять свои сообщения
Вы не можете голосовать в опросах
Вы не можете прикреплять файлы к сообщениям
Вы не можете скачивать файлы

!ВНИМАНИЕ!
Сайт не предоставляет электронные версии произведений, а занимается лишь коллекционированием и каталогизацией ссылок, присылаемых и публикуемых на форуме нашими читателями. Если вы являетесь правообладателем какого-либо представленного материала и не желаете, чтобы ссылка на него находилась в нашем каталоге, свяжитесь с нами, и мы незамедлительно удалим ее. Файлы для обмена на трекере предоставлены пользователями сайта, и администрация не несет ответственности за их содержание. Просьба не заливать файлы, защищенные авторскими правами, а также файлы нелегального содержания!