[ Сегодня идет свободное скачивание без начисления Download ]


Статистика раздачи
Нет
 
   
 
Top  
 
 
-Манглхорн / Manglehorn (2014) WEB-DL [H.264/720p-LQ]- Производство: США
Жанр: Драма
Режиссер: Дэвид Гордон Грин
Актеры: Аль Пачино, Холли Хантер, Крис Мессина, Хармони Корин, Натали Вайлмон, Джун Гриффин Гарсиа, Лара Шах, Сьерра Скотт, Тед Фергюсон, Скайлар Гаспер, Ребекка Франкьоне, Артур Маррокин
Описание:
Эй Джей Манглхорн, на первый взгляд, ничем не примечательный, обычный, стареющий человек, тихо живущий в маленьком городе: он нянчится со своим котом, каждую пятницу ходит в банк, всегда обедает в одном и том же заведении. Но у этого старика богатое прошлое: в молодости он был преступником, и однажды должен был сделать главный выбор в жизни - между любовью женщины его мечты и «большой работой»...

Дата мировой премьеры: 30 августа 2014
Дата премьеры в РФ: 11 июня 2015, «Cinema Prestige»
Продолжительность: 01:37:24
Качество видео: WEB-DL | СЭМПЛ
Перевод: Многоголосый закадровый, профессиональный
Субтитры: Вшитые, отключаемые
Язык субтитров: Английский
Видео: MPEG-4 AVC/H.264, 1280x532, ~ 3886 kbps
Аудио 1 Rus: AC-3, 2 ch, 192 kbps (многоголосый закадровый)
Аудио 2 Eng: AC-3, 6 ch, 384 kbps (оригинал)

MediaInfo

Общее
Уникальный идентификатор                 : 170938935638098971929057372590884973439 (0x8099A438146D47BDA9C3241CB04EEB7F)
Полное имя                               : Манглхорн.Manglehorn.720p.mkv
Формат                                   : Matroska
Версия формата                           : Version 2
Размер файла                             : 3,10 Гбайт
Продолжительность                        : 1 ч. 37 м.
Общий поток                              : 4553 Кбит/сек
Название фильма                          : RARBG.COM - Manglehorn.2014.720p.WEB-DL.DD5.1.H264-RARBG
Дата кодирования                         : UTC 2015-07-12 00:47:24
Программа кодирования                    : mkvmerge v8.1.0 ('Psychedelic Postcard') 64bit
Библиотека кодирования                   : libebml v1.3.1 + libmatroska v1.4.2
Видео
Идентификатор                            : 1
Формат                                   : AVC
Формат/Информация                        : Advanced Video Codec
Профиль формата                          : [url=mailto:Main@L3.1]Main@L3.1[/url]
Параметр CABAC формата                   : Нет
Параметр ReFrames формата                : 2 кадра
Идентификатор кодека                     : V_MPEG4/ISO/AVC
Продолжительность                        : 1 ч. 37 м.
Битрейт                                  : 3886 Кбит/сек
Ширина                                   : 1280 пикселей
Высота                                   : 532 пикселя
Соотношение сторон                       : 2,40:1
Режим частоты кадров                     : Постоянный
Частота кадров                           : 23,976 кадра/сек
Цветовое пространство                    : YUV
Субдискретизация насыщенности            : 4:2:0
Битовая глубина                          : 8 бит
Тип развёртки                            : Прогрессивная
Бит/(Пиксели*Кадры)                      : 0.238
Размер потока                            : 2,64 Гбайт (85%)
Язык                                     : English
Default                                  : Да
Forced                                   : Нет
colour_range                             : Limited
Основные цвета                           : BT.709
Характеристики трансфера                 : BT.709
Коэффициенты матрицы                     : BT.709
Аудио #1
Идентификатор                            : 2
Формат                                   : AC-3
Формат/Информация                        : Audio Coding 3
Расширение режима                        : CM (complete main)
Параметр Endianness формата              : Big
Идентификатор кодека                     : A_AC3
Продолжительность                        : 1 ч. 37 м.
Вид битрейта                             : Постоянный
Битрейт                                  : 192 Кбит/сек
Каналы                                   : 2 канала
Расположение каналов                     : Front: L R
Частота                                  : 48,0 КГц
Метод сжатия                             : С потерями
Размер потока                            : 134 Мбайт (4%)
Язык                                     : Russian
Default                                  : Да
Forced                                   : Нет
Аудио #2
Идентификатор                            : 3
Формат                                   : AC-3
Формат/Информация                        : Audio Coding 3
Расширение режима                        : CM (complete main)
Параметр Endianness формата              : Big
Идентификатор кодека                     : A_AC3
Продолжительность                        : 1 ч. 37 м.
Вид битрейта                             : Постоянный
Битрейт                                  : 384 Кбит/сек
Каналы                                   : 6 каналов
Расположение каналов                     : Front: L C R, Side: L R, LFE
Частота                                  : 48,0 КГц
Метод сжатия                             : С потерями
Размер потока                            : 268 Мбайт (8%)
Язык                                     : English
Default                                  : Нет
Forced                                   : Нет
Текст
Идентификатор                            : 4
Формат                                   : UTF-8
Идентификатор кодека                     : S_TEXT/UTF8
Идентификатор кодека/Информация          : UTF-8 Plain Text
Язык                                     : English
Default                                  : Нет
Forced                                   : Нет
Меню
00:00:00.000                             : en:1
00:07:20.000                             : en:2
00:19:22.000                             : en:3
00:33:26.000                             : en:4
00:43:43.000                             : en:5
01:03:19.000                             : en:6
01:19:06.000                             : en:7
01:33:19.000                             : en:8
Скриншоты:
Время раздачи: 24/7. До первых 10 скачавших.

[Цитировать]

Топик был перенесен из форума Новинки кинопроката в форум Драма
Henkok



Показать сообщения:    

Текущее время: 08-Дек 21:09

Часовой пояс: UTC + 3


Вы не можете начинать темы
Вы не можете отвечать на сообщения
Вы не можете редактировать свои сообщения
Вы не можете удалять свои сообщения
Вы не можете голосовать в опросах
Вы не можете прикреплять файлы к сообщениям
Вы не можете скачивать файлы

!ВНИМАНИЕ!
Сайт не предоставляет электронные версии произведений, а занимается лишь коллекционированием и каталогизацией ссылок, присылаемых и публикуемых на форуме нашими читателями. Если вы являетесь правообладателем какого-либо представленного материала и не желаете, чтобы ссылка на него находилась в нашем каталоге, свяжитесь с нами, и мы незамедлительно удалим ее. Файлы для обмена на трекере предоставлены пользователями сайта, и администрация не несет ответственности за их содержание. Просьба не заливать файлы, защищенные авторскими правами, а также файлы нелегального содержания!