[ Сегодня идет свободное скачивание без начисления Download ]


Статистика раздачи
Нет
 
   
 
Top  
 
 
Информация о фильме
Название: Дежурный папа
Оригинальное название: Daddy Day Care
Год выхода: 2003
Жанр: Комедия
Режиссер: Стив Карр
В ролях: Эдди Мёрфи, Стив Зан, Джефф Гарлин, Реджина Кинг, Анжелика Хьюстон, Кевин Нилон, Джонатан Кац, Шиван Фэллон, Лиза Эдельстейн, Лэйси Шабер, Лаура Кайтлингер, Лейла Арчери, Хамани Гриффин, Макс Буркхолдер, Артур Янг, Элль Фэннинг, Сизар Флорес, Хейли Ноэль Джонсон, Феликс Акилле, Шэйн Баумель, Джимми Беннетт, Коннор Кармоди, Кеннеди МакКалло, Алисса Шафер, Бриджитт Хо, Сьюзэн Сантьяго, Аннабелль Гурвич, Мэри Портсер, Тимми Дитерс, МакНэлли Сагал, Дамани Робертс, Тара Миркурио, Гари Оуэн, Уоллес Лэнгэм--О фильме:
Чарли и Фила увольняют с работы в крупной корпорации. Теперь им самим придётся сидеть со своими сыновьями, так как оплачивать счета дорогостоящего детского центра уже не на что. Промучившись пару недель со своими отпрысками, папаши так увлекаются этим делом, что решают поставить дело на деловые рельсы и открывают новый центр дневного пребывания для детей. Чарли и Филл находят всё новые и новые нетрадиционные и забавные способы воспитательного воздействия на малышей, и центр «Дежурный папа» становится всё более популярным. Почувствовав жёсткое соперничество со стороны усатых няней, директриса дорогого детского центра решает выжить конкурентов-новичков из бизнеса.-- --Страна: США
Студия: Davis Entertainment, Day Care Productions, Revolution Studios
Продолжительность: 01:32:31
Перевод: Дублированный, профессиональный многоголосый, профессиональный двухголосый, авторский--Файл
Кодек: MPEG-4 AVC
Качество: WEB-DLRip-AVC
Видео: 3000 Кбит/с, 1024x576
Звук: Русский, английский (АС3, 6 ch, 448 Кбит/с), русский (АС3, 6 ch, 384 Кбит/с)
Субтитры: Русские, английские--

Инфо-файл

Формат : Matroska
Версия формата : Version 2
Размер файла : 3,64 Гбайт
Продолжительность : 1 ч. 32 м.
Общий поток : 5624 Кбит/сек
Название фильма : Daddy.Day.Care.2003.x264.WEB-DLRip.AVC.Rus.Ukr.Eng
Дата кодирования : UTC 2015-07-15 08:26:17
Программа кодирования : mkvmerge v7.9.0 ('Birds') 64bit
Библиотека кодирования : libebml v1.3.1 + libmatroska v1.4.2
DURATION : 01:29:51.325000000
NUMBER_OF_FRAMES : 2163
NUMBER_OF_BYTES : 69415
_STATISTICS_WRITING_APP : mkvmerge v8.1.0 ('Psychedelic Postcard') 64bit
_STATISTICS_WRITING_DATE_UTC : 2015-07-13 10:58:43
_STATISTICS_TAGS : BPS DURATION NUMBER_OF_FRAMES NUMBER_OF_BYTES
Видео
Идентификатор : 1
Формат : AVC
Формат/Информация : Advanced Video Codec
Профиль формата : High@L4.1
Параметр CABAC формата : Да
Параметр ReFrames формата : 10 кадров
Идентификатор кодека : V_MPEG4/ISO/AVC
Продолжительность : 1 ч. 32 м.
Битрейт : 3000 Кбит/сек
Ширина : 1024 пикселя
Высота : 576 пикселей
Соотношение сторон : 16:9
Режим частоты кадров : Постоянный
Частота кадров : 23,976 кадра/сек
Цветовое пространство : YUV
Субдискретизация насыщенности : 4:2:0
Битовая глубина : 8 бит
Тип развёртки : Прогрессивная
Бит/(Пиксели*Кадры) : 0.212
Размер потока : 1,87 Гбайт (51%)
Заголовок : Daddy.Day.Care.2003.x264.WEB-DLRip.AVC.Rus.Ukr.Eng.by.StarbirS
Библиотека кодирования : x264 core 146 r2538 121396c
Настройки программы : cabac=1 / ref=10 / deblock=1:-3:-2 / analyse=0x3:0x113 / me=umh / subme=11 / psy=1 / psy_rd=1.05:0.15 / mixed_ref=1 / me_range=32 / chroma_me=1 / trellis=2 / 8x8dct=1 / cqm=0 / deadzone=21,11 / fast_pskip=0 / chroma_qp_offset=-3 / threads=12 / lookahead_threads=4 / sliced_threads=0 / nr=0 / decimate=0 / interlaced=0 / bluray_compat=0 / constrained_intra=0 / bframes=6 / b_pyramid=2 / b_adapt=2 / b_bias=0 / direct=3 / weightb=1 / open_gop=1 / weightp=2 / keyint=240 / keyint_min=23 / scenecut=40 / intra_refresh=0 / rc_lookahead=40 / rc=2pass / mbtree=0 / bitrate=3000 / ratetol=1.0 / qcomp=0.70 / qpmin=0 / qpmax=69 / qpstep=4 / cplxblur=20.0 / qblur=0.5 / vbv_maxrate=50000 / vbv_bufsize=62500 / nal_hrd=none / filler=0 / ip_ratio=1.40 / pb_ratio=1.30 / aq=1:0.80
Язык : English
Default : Да
Forced : Нет
Аудио #1
Идентификатор : 2
Формат : AC-3
Формат/Информация : Audio Coding 3
Расширение режима : CM (complete main)
Параметр Endianness формата : Big
Идентификатор кодека : A_AC3
Продолжительность : 1 ч. 32 м.
Вид битрейта : Постоянный
Битрейт : 448 Кбит/сек
Каналы : 6 каналов
Расположение каналов : Front: L C R, Side: L R, LFE
Частота : 48,0 КГц
Метод сжатия : С потерями
Размер потока : 296 Мбайт (8%)
Заголовок : Дублированный (Видеосервис)
Язык : Russian
Default : Да
Forced : Нет
Аудио #2
Идентификатор : 3
Формат : AC-3
Формат/Информация : Audio Coding 3
Расширение режима : CM (complete main)
Параметр Endianness формата : Big
Идентификатор кодека : A_AC3
Продолжительность : 1 ч. 32 м.
Вид битрейта : Постоянный
Битрейт : 384 Кбит/сек
Каналы : 6 каналов
Расположение каналов : Front: L C R, Side: L R, LFE
Частота : 48,0 КГц
Метод сжатия : С потерями
Размер потока : 254 Мбайт (7%)
Заголовок : Профессиональный многоголосый
Язык : Russian
Default : Нет
Forced : Нет
Аудио #3
Идентификатор : 4
Формат : AC-3
Формат/Информация : Audio Coding 3
Расширение режима : CM (complete main)
Параметр Endianness формата : Big
Идентификатор кодека : A_AC3
Продолжительность : 1 ч. 32 м.
Вид битрейта : Постоянный
Битрейт : 448 Кбит/сек
Каналы : 6 каналов
Расположение каналов : Front: L C R, Side: L R, LFE
Частота : 48,0 КГц
Метод сжатия : С потерями
Размер потока : 296 Мбайт (8%)
Заголовок : Профессиональный двухголосый (Петр Гланц и Инна Королева)
Язык : Russian
Default : Нет
Forced : Нет
Аудио #4
Идентификатор : 5
Формат : AC-3
Формат/Информация : Audio Coding 3
Расширение режима : CM (complete main)
Параметр Endianness формата : Big
Идентификатор кодека : A_AC3
Продолжительность : 1 ч. 32 м.
Вид битрейта : Постоянный
Битрейт : 448 Кбит/сек
Каналы : 6 каналов
Расположение каналов : Front: L C R, Side: L R, LFE
Частота : 48,0 КГц
Метод сжатия : С потерями
Размер потока : 296 Мбайт (8%)
Заголовок : Авторский одноголосый (Антон Карповский)
Язык : Russian
Default : Нет
Forced : Нет
Аудио #5
Идентификатор : 6
Формат : AC-3
Формат/Информация : Audio Coding 3
Расширение режима : CM (complete main)
Параметр Endianness формата : Big
Идентификатор кодека : A_AC3
Продолжительность : 1 ч. 32 м.
Вид битрейта : Постоянный
Битрейт : 448 Кбит/сек
Каналы : 6 каналов
Расположение каналов : Front: L C R, Side: L R, LFE
Частота : 48,0 КГц
Метод сжатия : С потерями
Размер потока : 296 Мбайт (8%)
Заголовок : Авторский одноголосый (Михаил Чадов)
Язык : Russian
Default : Нет
Forced : Нет
Аудио #6
Идентификатор : 7
Формат : AC-3
Формат/Информация : Audio Coding 3
Расширение режима : CM (complete main)
Параметр Endianness формата : Big
Идентификатор кодека : A_AC3
Продолжительность : 1 ч. 32 м.
Вид битрейта : Постоянный
Битрейт : 448 Кбит/сек
Каналы : 6 каналов
Расположение каналов : Front: L C R, Side: L R, LFE
Частота : 48,0 КГц
Метод сжатия : С потерями
Размер потока : 296 Мбайт (8%)
Язык : English
Default : Нет
Forced : Нет
Текст #1
Идентификатор : 8
Формат : UTF-8
Идентификатор кодека : S_TEXT/UTF8
Идентификатор кодека/Информация : UTF-8 Plain Text
Язык : Russian
Default : Нет
Forced : Нет
Текст #2
Идентификатор : 9
Формат : UTF-8
Идентификатор кодека : S_TEXT/UTF8
Идентификатор кодека/Информация : UTF-8 Plain Text
Язык : English
Default : Нет
Forced : Нет
Меню
00:00:00.000 : en:Start
00:02:46.000 : en:Charlie Hinton
00:05:07.000 : en:Veggie-O's
00:06:25.000 : en:The Chapman Academy
00:10:38.000 : en:Health Division shutdown
00:12:37.000 : en:Value alternatives
00:20:49.000 : en:Taking a flier on Daddy Day Care
00:22:25.000 : en:Open enrollment
00:25:43.000 : en:The Mission Statement
00:28:08.000 : en:Big Phil with the guitar
00:29:35.000 : en:Sugar time!
00:36:45.000 : en:IT is happening
00:39:53.000 : en:"Let's get ready to RUMBLE!"
00:41:26.000 : en:Dan Kubitz, Child Services
00:46:11.000 : en:The third care provider
00:51:56.000 : en:The focus group
00:53:41.000 : en:"Ballroom Blitz"
00:56:15.000 : en:Pet Day
01:03:03.000 : en:The man of the house
01:05:34.000 : en:"Flash is gone!"
01:07:13.000 : en:Mr. Kubitz' puppet show
01:10:09.000 : en:ROCK FOR DADDY DAY CARE
01:14:27.000 : en:Proposals & propositions
01:16:39.000 : en:The dream is over
01:19:24.000 : en:Cotton Candy Puffs
01:21:57.000 : en:Back in business
01:25:09.000 : en:Six months later
01:28:00.000 : en:End credits & outtakes
--

Скриншоты


[Цитировать]



Показать сообщения:    

Текущее время: 25-Мар 19:41

Часовой пояс: UTC + 6


Вы не можете начинать темы
Вы не можете отвечать на сообщения
Вы не можете редактировать свои сообщения
Вы не можете удалять свои сообщения
Вы не можете голосовать в опросах
Вы не можете прикреплять файлы к сообщениям
Вы не можете скачивать файлы

!ВНИМАНИЕ!
Сайт не предоставляет электронные версии произведений, а занимается лишь коллекционированием и каталогизацией ссылок, присылаемых и публикуемых на форуме нашими читателями. Если вы являетесь правообладателем какого-либо представленного материала и не желаете, чтобы ссылка на него находилась в нашем каталоге, свяжитесь с нами, и мы незамедлительно удалим ее. Файлы для обмена на трекере предоставлены пользователями сайта, и администрация не несет ответственности за их содержание. Просьба не заливать файлы, защищенные авторскими правами, а также файлы нелегального содержания!