[ Сегодня идет свободное скачивание без начисления Download ]


Статистика раздачи
Нет
 
   
 
Top  
 
 
Мстители / The Avengers
Год выпуска: 2012
Страна: США
Слоган: «Some assembly required.»
Жанр: фантастика, боевик, триллер
Продолжительность: 02:22:54
Перевод: Профессиональный (полное дублирование)
Субтитры: русские (x2), английские
Режиссер: Джосс Уидон / Joss Whedon
В ролях: Роберт Дауни мл. (Tony Stark / Iron Man), Крис Эванс (Steve Rogers / Captain America), Марк Руффало (Bruce Banner / The Hulk), Крис Хемсворт (Thor), Скарлетт Йоханссон (Natasha Romanoff / Black Widow), Джереми Реннер (Clint Barton / Hawkeye), Том Хиддлстон (Loki), Сэмюэл Л. Джексон (Nick Fury), Кларк Грегг (Agent Phil Coulson), Коби Смолдерс (Agent Maria Hill)
Описание: Локи, сводный брат Тора, возвращается, и в этот раз он не один. Земля на грани порабощения, и только лучшие из лучших могут спасти человечество.
Ник Фьюри, глава международной организации Щ. И. Т., собирает выдающихся поборников справедливости и добра, чтобы отразить атаку. Под предводительством Капитана Америки Железный Человек, Тор, Невероятный Халк, Соколиный глаз и Чёрная Вдова вступают в войну с захватчиком.
Качество: BDRip 1080p (Wiki)
Формат: MKV
Видео кодек: AVC
Аудио кодек: AC3, DTS
Видео: 1920x1080 (16:9), 13000 kbps, 23,976 fps, 0,261 bpp
Аудио #1: 48 kHz, AC3, 5.1 ch, 640 kbps
Аудио #2: 48 kHz, DTS, 5.1 ch, 1510 kbps
Субтитры №1: русские; (Forced)
Субтитры №2: русские; (Full)
Субтитры №3: английские
Навигация по главам: есть

Скриншоты


MediaInfo

Format                                   : Matroska
Format version                           : Version 2
File size                                : 15.1 GiB
Duration                                 : 2h 22mn
Overall bit rate                         : 15.2 Mbps
Movie name                               : The Avengers (2012)
Encoded date                             : UTC 2012-08-22 05:37:46
Writing application                      : mkvmerge v5.2.0 ('I can't explain') built on Dec 18 2011 18:12:03
Writing library                          : libebml v1.2.3 + libmatroska v1.3.0
Video
ID                                       : 1
Format                                   : AVC
Format/Info                              : Advanced Video Codec
Format profile                           : [url=mailto:High@L4.1]High@L4.1[/url]
Format settings, CABAC                   : Yes
Format settings, ReFrames                : 4 frames
Codec ID                                 : V_MPEG4/ISO/AVC
Duration                                 : 2h 22mn
Bit rate                                 : 13.0 Mbps
Width                                    : 1 920 pixels
Height                                   : 1 080 pixels
Display aspect ratio                     : 16:9
Frame rate                               : 23.976 fps
Color space                              : YUV
Chroma subsampling                       : 4:2:0
Bit depth                                : 8 bits
Scan type                                : Progressive
Bits/(Pixel*Frame)                       : 0.261
Stream size                              : 12.7 GiB (84%)
Writing library                          : x264 core 125 r2208 d9d2288
Encoding settings                        : cabac=1 / ref=4 / deblock=1:-3:-3 / analyse=0x3:0x133 / me=umh / subme=11 / psy=1 / psy_rd=0.85:0.00 / mixed_ref=1 / me_range=32 / chroma_me=1 / trellis=2 / 8x8dct=1 / cqm=0 / deadzone=21,11 / fast_pskip=0 / chroma_qp_offset=-2 / threads=18 / lookahead_threads=3 / sliced_threads=0 / nr=0 / decimate=1 / interlaced=0 / bluray_compat=0 / constrained_intra=0 / bframes=10 / b_pyramid=2 / b_adapt=2 / b_bias=0 / direct=3 / weightb=1 / open_gop=0 / weightp=2 / keyint=250 / keyint_min=23 / scenecut=40 / intra_refresh=0 / rc_lookahead=60 / rc=2pass / mbtree=1 / bitrate=13000 / ratetol=1.0 / qcomp=0.60 / qpmin=0 / qpmax=69 / qpstep=4 / cplxblur=20.0 / qblur=0.5 / ip_ratio=1.40 / aq=1:0.80
Language                                 : English
Default                                  : Yes
Forced                                   : Yes
Audio #1
ID                                       : 2
Format                                   : AC-3
Format/Info                              : Audio Coding 3
Mode extension                           : CM (complete main)
Codec ID                                 : A_AC3
Duration                                 : 2h 22mn
Bit rate mode                            : Constant
Bit rate                                 : 640 Kbps
Channel(s)                               : 6 channels
Channel positions                        : Front: L C R, Side: L R, LFE
Sampling rate                            : 48.0 KHz
Bit depth                                : 16 bits
Compression mode                         : Lossy
Stream size                              : 654 MiB (4%)
Title                                    : AC3 5.1 @ 640 kbps
Language                                 : Russian
Default                                  : Yes
Forced                                   : Yes
Audio #2
ID                                       : 3
Format                                   : DTS
Format/Info                              : Digital Theater Systems
Codec ID                                 : A_DTS
Duration                                 : 2h 22mn
Bit rate mode                            : Constant
Bit rate                                 : 1 510 Kbps
Channel(s)                               : 6 channels
Channel positions                        : Front: L C R, Side: L R, LFE
Sampling rate                            : 48.0 KHz
Bit depth                                : 24 bits
Compression mode                         : Lossy
Stream size                              : 1.51 GiB (10%)
Title                                    : DTS 5.1 @ 1536 kbps
Language                                 : English
Default                                  : No
Forced                                   : No
Text #1
ID                                       : 4
Format                                   : UTF-8
Codec ID                                 : S_TEXT/UTF8
Codec ID/Info                            : UTF-8 Plain Text
Title                                    : Forced
Language                                 : Russian
Default                                  : No
Forced                                   : No
Text #2
ID                                       : 5
Format                                   : UTF-8
Codec ID                                 : S_TEXT/UTF8
Codec ID/Info                            : UTF-8 Plain Text
Title                                    : Full
Language                                 : Russian
Default                                  : No
Forced                                   : No
Text #3
ID                                       : 6
Format                                   : UTF-8
Codec ID                                 : S_TEXT/UTF8
Codec ID/Info                            : UTF-8 Plain Text
Language                                 : English
Default                                  : No
Forced                                   : No
Menu
00:00:00.000                             : en:00:00:00.000
00:08:02.315                             : en:00:08:02.315
00:11:49.167                             : en:00:11:49.167
00:15:18.751                             : en:00:15:18.751
00:20:33.482                             : en:00:20:33.482
00:23:04.258                             : en:00:23:04.258
00:29:39.444                             : en:00:29:39.444
00:37:23.992                             : en:00:37:23.992
00:42:47.982                             : en:00:42:47.982
00:50:22.269                             : en:00:50:22.269
01:01:04.661                             : en:01:01:04.661
01:14:05.107                             : en:01:14:05.107
01:28:01.234                             : en:01:28:01.234
01:38:20.561                             : en:01:38:20.561
01:45:40.167                             : en:01:45:40.167
01:51:15.085                             : en:01:51:15.085
01:57:47.769                             : en:01:57:47.769
02:04:38.680                             : en:02:04:38.680
02:09:39.397                             : en:02:09:39.397
02:13:10.691                             : en:02:13:10.691

[Цитировать]



Показать сообщения:    

Текущее время: 07-Дек 11:37

Часовой пояс: UTC + 3


Вы не можете начинать темы
Вы не можете отвечать на сообщения
Вы не можете редактировать свои сообщения
Вы не можете удалять свои сообщения
Вы не можете голосовать в опросах
Вы не можете прикреплять файлы к сообщениям
Вы не можете скачивать файлы

!ВНИМАНИЕ!
Сайт не предоставляет электронные версии произведений, а занимается лишь коллекционированием и каталогизацией ссылок, присылаемых и публикуемых на форуме нашими читателями. Если вы являетесь правообладателем какого-либо представленного материала и не желаете, чтобы ссылка на него находилась в нашем каталоге, свяжитесь с нами, и мы незамедлительно удалим ее. Файлы для обмена на трекере предоставлены пользователями сайта, и администрация не несет ответственности за их содержание. Просьба не заливать файлы, защищенные авторскими правами, а также файлы нелегального содержания!