[ Сегодня идет свободное скачивание без начисления Download ]


Статистика раздачи
Нет
 
   
 
Top  
 
 
Информация о фильме
Название: Не вижу зла 2
Оригинальное название: See No Evil 2
Год выхода: 2014
Жанр: Ужасы
Режиссер: Джен Соска, Сильвия Соска
В ролях: Глен Джейкобс, Даниэль Харрис, Кэтрин Изабель, Каж-Эрик Эриксен, Челан Симмонс, Грейстон Холт, Ли Мадждуб, Майкл Эклунд, Риз Александр, Келли-Рут Мерсье
О фильме:
Кошмар, закончившийся в первом фильме, продолжается: Джейкоб Гуднайт восстает из мертвых в городском морге, после смертельной резни в отеле «Блэкуэлл». В этом зловещем подземном хранилище для мертвых группе студентов придется бороться с невменяемым психопатом, который вновь начинает забирать их одного за другим.

Выпущено: США / Lionsgate, WWE Studios
Продолжительность: 01:30:12
Перевод: Любительское (многоголосое) [Антонио, Александр Харченко, Анастасия Домина, den904, DeadSno и Парниша] -
по переводу [Мегапыхарь]

Файл
Формат: MKV
Качество: BDRip 720p
Видео: MPEG-4 AVC, 5347 Кбит/с, 1280x720
Аудио: Русский (AC3, 6 ch, 448 Кбит/с), английский (DTS, 6 ch, 1510 Кбит/с)
Субтитры: Английские
Семпл[/url]

Media Info:


Общее
Уникальный идентификатор : 178620901709279286617081752885708378515 (0x866122636B9FC9D08E45DA5265C6D193)
Полное имя : F:Раздача HDSee.No.Evil.2.2014.Blu.Ray.720p.CINEMANIA.mkv
Формат : Matroska
Версия формата : Version 4 / Version 2
Размер файла : 4,70 Гбайт
Продолжительность : 1 ч. 30 м.
Общий поток : 7452 Кбит/сек
Название фильма : Release Group CINEMANIA
Дата кодирования : UTC 2014-10-30 00:10:36
Программа кодирования : mkvmerge v7.3.0 ('Nouages') 64bit built on Oct 22 2014 18:53:34
Библиотека кодирования : libebml v1.3.0 + libmatroska v1.4.1
Видео
Идентификатор : 1
Формат : AVC
Формат/Информация : Advanced Video Codec
Профиль формата : High@L4.1
Параметр CABAC формата : Да
Параметр ReFrames формата : 9 кадров
Идентификатор кодека : V_MPEG4/ISO/AVC
Продолжительность : 1 ч. 30 м.
Битрейт : 5347 Кбит/сек
Ширина : 1280 пикселей
Высота : 720 пикселей
Соотношение сторон : 16:9
Режим частоты кадров : Постоянный
Частота кадров : 23,976 кадра/сек
Цветовое пространство : YUV
Субдискретизация насыщенности : 4:2:0
Битовая глубина : 8 бит
Тип развёртки : Прогрессивная
Бит/(Пиксели*Кадры) : 0.242
Размер потока : 3,37 Гбайт (72%)
Заголовок : Release Group CINEMANIA
Библиотека кодирования : x264 core 142 r2431kMod ac76440
Настройки программы : cabac=1 / ref=9 / deblock=1:-3:-3 / analyse=0x3:0x133 / me=umh / subme=10 / psy=1 / fade_compensate=0.00 / psy_rd=1.00:0.00 / mixed_ref=1 / me_range=24 / chroma_me=1 / trellis=2 / 8x8dct=1 / cqm=0 / deadzone=21,11 / fast_pskip=0 / chroma_qp_offset=-2 / threads=12 / lookahead_threads=2 / sliced_threads=0 / nr=0 / decimate=0 / interlaced=0 / bluray_compat=0 / constrained_intra=0 / fgo=0 / bframes=9 / b_pyramid=2 / b_adapt=2 / b_bias=0 / direct=3 / weightb=1 / open_gop=0 / weightp=2 / keyint=250 / keyint_min=23 / scenecut=40 / intra_refresh=0 / rc=crf / mbtree=0 / crf=17.5000 / qcomp=0.75 / qpmin=0 / qpmax=69 / qpstep=4 / ip_ratio=1.30 / pb_ratio=1.20 / aq=1:1.00
Язык : English
Default : Да
Forced : Нет
Аудио #1
Идентификатор : 2
Формат : AC-3
Формат/Информация : Audio Coding 3
Расширение режима : CM (complete main)
Параметр Endianness формата : Big
Идентификатор кодека : A_AC3
Продолжительность : 1 ч. 30 м.
Вид битрейта : Постоянный
Битрейт : 448 Кбит/сек
Каналы : 6 каналов
Расположение каналов : Front: L C R, Side: L R, LFE
Частота : 48,0 КГц
Битовая глубина : 16 бит
Метод сжатия : С потерями
Размер потока : 289 Мбайт (6%)
Заголовок : Влад, Снежинка и Ко
Язык : Russian
Default : Да
Forced : Да
Аудио #2
Идентификатор : 3
Формат : DTS
Формат/Информация : Digital Theater Systems
Режим : 16
Параметр Endianness формата : Big
Идентификатор кодека : A_DTS
Продолжительность : 1 ч. 30 м.
Вид битрейта : Постоянный
Битрейт : 1509 Кбит/сек
Каналы : 6 каналов
Расположение каналов : Front: L C R, Side: L R, LFE
Частота : 48,0 КГц
Битовая глубина : 24 бит
Метод сжатия : С потерями
Размер потока : 974 Мбайт (20%)
Язык : English
Default : Нет
Forced : Нет
Текст #1
Идентификатор : 4
Формат : UTF-8
Идентификатор кодека : S_TEXT/UTF8
Идентификатор кодека/Информация : UTF-8 Plain Text
Язык : Russian
Default : Да
Forced : Да
Текст #2
Идентификатор : 5
Формат : UTF-8
Идентификатор кодека : S_TEXT/UTF8
Идентификатор кодека/Информация : UTF-8 Plain Text
Язык : English
Default : Нет
Forced : Нет
Меню
00:00:00.000 : en:00:00:00.000
00:05:29.412 : en:00:05:29.412
00:08:49.195 : en:00:08:49.195
00:16:18.769 : en:00:16:18.769
00:21:18.903 : en:00:21:18.903
00:27:50.043 : en:00:27:50.043
00:31:06.782 : en:00:31:06.782
00:35:33.715 : en:00:35:33.715
00:42:21.706 : en:00:42:21.706
00:49:53.199 : en:00:49:53.199
00:54:41.612 : en:00:54:41.612
00:58:38.056 : en:00:58:38.056
01:04:37.373 : en:01:04:37.373
01:10:43.364 : en:01:10:43.364
01:13:07.633 : en:01:13:07.633
01:17:31.897 : en:01:17:31.897

Скриншоты

[Цитировать]



Показать сообщения:    

Текущее время: 08-Дек 15:01

Часовой пояс: UTC + 3


Вы не можете начинать темы
Вы не можете отвечать на сообщения
Вы не можете редактировать свои сообщения
Вы не можете удалять свои сообщения
Вы не можете голосовать в опросах
Вы не можете прикреплять файлы к сообщениям
Вы не можете скачивать файлы

!ВНИМАНИЕ!
Сайт не предоставляет электронные версии произведений, а занимается лишь коллекционированием и каталогизацией ссылок, присылаемых и публикуемых на форуме нашими читателями. Если вы являетесь правообладателем какого-либо представленного материала и не желаете, чтобы ссылка на него находилась в нашем каталоге, свяжитесь с нами, и мы незамедлительно удалим ее. Файлы для обмена на трекере предоставлены пользователями сайта, и администрация не несет ответственности за их содержание. Просьба не заливать файлы, защищенные авторскими правами, а также файлы нелегального содержания!