[ Сегодня идет свободное скачивание без начисления Download ]


Статистика раздачи
Нет
 
   
 
Top  
 
 
Страна: СССР
Производство: Союзмультфильм
Жанр: мультфильм, короткометражка
Год выпуска: 1951-1976
Продолжительность: 04:59:05 (13 мультфильмов)
Перевод: Не требуется
Cубтитры: нет
Оригинальная аудиодорожка: русский
Режиссер: Михаил Цехановский, Фёдор Хитрук, Борис Дежкин...
Описание: «Союзмультфильм» — крупнейшая в СССР студия мультипликационных фильмов, основанная в Москве 10 июня 1936 года. Студия создана 10 июня 1936 года с названием — «Союздетмультфильм» (из объединения мелких коллективов Мосфильма, Совкино и Межрабпромфильма), а с 20 августа 1937 года ее переименовали в «Союзмультфильм». Хотя приказ о создании студии был подписан начальником Главного Управления кинофотопромышленности, считается, что решение о создании студии мультипликационных фильмов исходило лично от И. В. Сталина. Для студии были выделены помещения закрытых Советской властью храмов: Николая Чудотворца в Новой слободе на Долгоруковской улице (в советское время — Каляевской улице), где находилось производство рисованных фильмов, и Спаса Преображения «что на Песках» в Спасопесковском переулке на Арбате, где располагалось «Творческое объединение кукольных фильмов». Храм на Арбате в 1991 году был возвращен Русской Православной Церкви, а храм на ул. Долгоруковской не возвращен РПЦ до сих пор, хотя решения о необходимости, в принципе, вернуть Церкви отнятые у неё храмы принимались уже более 15 лет назад. В настоящее время здание на Долгоруковской ул. дом 25 находится в федеральной собственности и закреплено на праве хозяйственного ведения за ФГУП "ТПО "Киностудия «Союзмультфильм».
Первый мультфильм, выпущенный студией, назывался «В Африке жарко» (1936 год). С 1937 года начали выпускаться цветные мультфильмы. На студии снято более 1500 мультфильмов.- -Источник: DVD5 R5
Качество видео: DVDRip-AVC
Формат видео: MKV
Видео: 712->762x572 (4:3), 25 fps, H264 ~ 1806 kbps avg, 0.177 bit/pixel
Аудио: 48 kHz, Dolby Digital AC3 2.0, 192 kbps

Список мультфильмов

01. Кто первый (1950) 0:09:39
02. Ночь перед Рождеством (1951) 0:45:57
03. Валидуб (1952) 0:19:54
04. Лесной концерт (1953) 0:10:14
05. Полет на Луну (1953) 0:29:29
06. Волшебная птица (1953) 0:19:10
07. Крашеный лис (1953) 0:10:07
08. Храбрый Пак (1953) 0:20:13
09. Храбрый олененок (1957) 0:20:08
10. Человечка нарисовал я (1960) 0:52:39
11. Три толстяка (1963) 0:34:09
12. Снежные дорожки (1963) 0:10:00
13. Лягушка-путешественница (1965) 0:17:26

MediaInfo

Общее
Полное имя : Sbornik.multfilmov.1951-1976.DVDRip-AVC_[New-team]_by_AVP_Studio.mkv
Формат : Matroska
Версия формата : Version 2
Размер файла : 162 Мбайт
Продолжительность : 10 м.
Общий поток : 2256 Кбит/сек
Дата кодирования : UTC 2015-07-23 14:53:01
Программа кодирования : mkvmerge v6.1.0 ('Old Devil') built on Mar 4 2013 09:10:42
Библиотека кодирования : libebml v1.3.0 + libmatroska v1.4.0
Видео
Идентификатор : 1
Формат : AVC
Формат/Информация : Advanced Video Codec
Профиль формата : High@L4.1
Параметр CABAC формата : Да
Параметр ReFrames формата : 8 кадров
Идентификатор кодека : V_MPEG4/ISO/AVC
Продолжительность : 10 м.
Битрейт : 1806 Кбит/сек
Ширина : 712 пикселей
Высота : 572 пикселя
Соотношение сторон : 4:3
Режим частоты кадров : Постоянный
Частота кадров : 25,000 кадров/сек
Цветовое пространство : YUV
Субдискретизация насыщенности : 4:2:0
Битовая глубина : 8 бит
Тип развёртки : Прогрессивная
Бит/(Пиксели*Кадры) : 0.177
Размер потока : 126 Мбайт (78%)
Библиотека кодирования : x264 core 130 r2273 b3065e6
Настройки программы : cabac=1 / ref=8 / deblock=1:-2:-1 / analyse=0x3:0x113 / me=umh / subme=10 / psy=1 / psy_rd=1.00:0.05 / mixed_ref=1 / me_range=32 / chroma_me=1 / trellis=2 / 8x8dct=1 / cqm=0 / deadzone=21,11 / fast_pskip=0 / chroma_qp_offset=-3 / threads=6 / lookahead_threads=1 / sliced_threads=0 / nr=0 / decimate=0 / interlaced=0 / bluray_compat=0 / constrained_intra=0 / bframes=8 / b_pyramid=2 / b_adapt=2 / b_bias=0 / direct=3 / weightb=1 / open_gop=0 / weightp=2 / keyint=250 / keyint_min=25 / scenecut=40 / intra_refresh=0 / rc=2pass / mbtree=0 / bitrate=1806 / ratetol=1.0 / qcomp=0.60 / qpmin=0 / qpmax=69 / qpstep=4 / cplxblur=20.0 / qblur=0.5 / ip_ratio=1.40 / pb_ratio=1.30 / aq=1:1.00
Default : Да
Forced : Нет
Аудио
Идентификатор : 2
Формат : AC-3
Формат/Информация : Audio Coding 3
Расширение режима : CM (complete main)
Параметр Endianness формата : Big
Идентификатор кодека : A_AC3
Продолжительность : 10 м.
Вид битрейта : Постоянный
Битрейт : 192 Кбит/сек
Каналы : 2 канала
Расположение каналов : Front: L R
Частота : 48,0 КГц
Метод сжатия : С потерями
Размер потока : 32,1 Мбайт (20%)
Default : Да
Forced : Нет

Скриншоты

[Цитировать]



Показать сообщения:    

Текущее время: 10-Дек 11:44

Часовой пояс: UTC + 3


Вы не можете начинать темы
Вы не можете отвечать на сообщения
Вы не можете редактировать свои сообщения
Вы не можете удалять свои сообщения
Вы не можете голосовать в опросах
Вы не можете прикреплять файлы к сообщениям
Вы не можете скачивать файлы

!ВНИМАНИЕ!
Сайт не предоставляет электронные версии произведений, а занимается лишь коллекционированием и каталогизацией ссылок, присылаемых и публикуемых на форуме нашими читателями. Если вы являетесь правообладателем какого-либо представленного материала и не желаете, чтобы ссылка на него находилась в нашем каталоге, свяжитесь с нами, и мы незамедлительно удалим ее. Файлы для обмена на трекере предоставлены пользователями сайта, и администрация не несет ответственности за их содержание. Просьба не заливать файлы, защищенные авторскими правами, а также файлы нелегального содержания!