[ Сегодня идет свободное скачивание без начисления Download ]


Статистика раздачи
Нет
 
   
 
Top  
 
 
Информация о фильме
Название: Секретный фарватер
Год выхода: 1986
Жанр: Приключения, военный, экранизация
Режиссер: Вадим Костроменко
В ролях: Анатолий Котенёв, Лариса Гузеева, Вячеслав Богатырёв, Сергей Быстрицкий, Леонид Трутнев, Владимир Наумцев, Валерий Юрченко, Борис Борисов, Улдис Думпис, Видас Петкявичюс, Гедиминас Гирдвайнис, Юрис Горнавс, Арунас Сторпирштис, Станислав Рий, Андрей Градов, Евгений Цветков (II), Иван Мацкевич, Пётр Шерекин, Александр Жданов, Ирен Азер, Василий Векшин, Виктор Козачук, Виктор Пименов, Юрий Эллер, Сейдулла Молдаханов, Валерий Наконечный, Пётр Шидывар, Гиви Тохадзе
О фильме:
Экранизация одноименного романа Леонида Платова. 1944-й год... Год победоносного перелома в Великой Отечественной войне, но на Балтийском театре морских сражений пока тихо. Выполняя боевую задачу, командир торпедного катера Борис Шубин случайно обнаруживает секретный фарватер немецкой подводной лодки без опознавательных знаков. Непредвиденный случай забрасывает его на "Летучий голландец" и дает возможность приоткрыть завесу строжайшей тайны Третьего Рейха, которая ее окружает...

Страна: СССР, Одесская киностудия
Продолжительность: 4 х ~ 01:07:22
Перевод: не требуется
Файл
Кодек: MKV
Качество: SATRip-AVC
Видео: MPEG-4 AVC, ~ 2250 Кбит/с, 712х572@760х572
Звук: AC3, 2 ch, 192 Кбит/с

Скриншоты


Медиа-Инфо

raw [info]: 712x572p 16:15 @ 25/1 fps (cfr)
x264 [info]: using SAR=16/15
x264 [info]: using cpu capabilities: MMX2 SSE2Fast SSSE3 SSE4.2 AVX
x264 [info]: profile High, level 4.1
x264 [info]: frame I:516 Avg QP:16.73 size: 53897
x264 [info]: frame P:20207 Avg QP:18.31 size: 27174
x264 [info]: frame B:75493 Avg QP:20.64 size: 7229
=======================================================================================================
Общее
Уникальный идентификатор : 211882665612533079364356851780154662876 (0x9F671DF654F77203A4F536CE74259FDC)
Полное имя : R:МОИ РИПЫСекретный фарватер_1986-SATRip-AVCФарватер-1.mkv
Формат : Matroska
Версия формата : Version 2
Размер файла : 1,13 Гбайт
Продолжительность : 1 ч. 4 м.
Общий поток : 2527 Кбит/сек
Дата кодирования : UTC 2015-07-30 21:01:45
Программа кодирования : mkvmerge v5.8.0 ('No Sleep / Pillow') built on Sep 2 2012 15:37:04
Библиотека кодирования : libebml v1.2.3 + libmatroska v1.3.0
Видео
Идентификатор : 1
Формат : AVC
Формат/Информация : Advanced Video Codec
Профиль формата : High@L4.1
Параметр CABAC формата : Да
Параметр ReFrames формата : 15 кадров
Идентификатор кодека : V_MPEG4/ISO/AVC
Продолжительность : 1 ч. 4 м.
Битрейт : 2285 Кбит/сек
Ширина : 712 пикселей
Высота : 572 пикселя
Соотношение сторон : 4:3
Соотношение сторон в оригинале : 4:3
Режим частоты кадров : Постоянный
Частота кадров : 25,000 кадров/сек
Цветовое пространство : YUV
Субдискретизация насыщенности : 4:2:0
Битовая глубина : 8 бит
Тип развёртки : Прогрессивная
Бит/(Пиксели*Кадры) : 0.224
Размер потока : 1,02 Гбайт (90%)
Библиотека кодирования : x264 core 146 r2538 121396c
Настройки программы : cabac=1 / ref=15 / deblock=1:-2:-2 / analyse=0x3:0x133 / me=umh / subme=10 / psy=1 / psy_rd=1.05:0.15 / mixed_ref=1 / me_range=32 / chroma_me=1 / trellis=2 / 8x8dct=1 / cqm=0 / deadzone=21,11 / fast_pskip=1 / chroma_qp_offset=-3 / threads=12 / lookahead_threads=2 / sliced_threads=0 / nr=0 / decimate=1 / interlaced=0 / bluray_compat=0 / constrained_intra=0 / bframes=9 / b_pyramid=2 / b_adapt=2 / b_bias=0 / direct=1 / weightb=1 / open_gop=0 / weightp=2 / keyint=250 / keyint_min=25 / scenecut=40 / intra_refresh=0 / rc=crf / mbtree=0 / crf=18.3 / qcomp=0.65 / qpmin=0 / qpmax=69 / qpstep=4 / ip_ratio=1.40 / pb_ratio=1.30 / aq=1:1.00
Язык : English
Default : Да
Forced : Нет
Цветовой диапазон : Limited
Основные цвета : BT.601 PAL
Характеристики трансфера : BT.470 System B, BT.470 System G
Коэффициенты матрицы : BT.601
Аудио
Идентификатор : 2
Формат : AC-3
Формат/Информация : Audio Coding 3
Расширение режима : CM (complete main)
Параметр Endianness формата : Big
Идентификатор кодека : A_AC3
Продолжительность : 1 ч. 4 м.
Вид битрейта : Постоянный
Битрейт : 192 Кбит/сек
Каналы : 2 канала
Расположение каналов : Front: L R
Частота : 48,0 КГц
Битовая глубина : 16 бит
Метод сжатия : С потерями
Задержка видео : 13 мс.
Размер потока : 88,1 Мбайт (8%)
Язык : Russian
Default : Да
Forced : Нет

[Цитировать]



Показать сообщения:    

Текущее время: 17-Янв 09:57

Часовой пояс: UTC + 3


Вы не можете начинать темы
Вы не можете отвечать на сообщения
Вы не можете редактировать свои сообщения
Вы не можете удалять свои сообщения
Вы не можете голосовать в опросах
Вы не можете прикреплять файлы к сообщениям
Вы не можете скачивать файлы

!ВНИМАНИЕ!
Сайт не предоставляет электронные версии произведений, а занимается лишь коллекционированием и каталогизацией ссылок, присылаемых и публикуемых на форуме нашими читателями. Если вы являетесь правообладателем какого-либо представленного материала и не желаете, чтобы ссылка на него находилась в нашем каталоге, свяжитесь с нами, и мы незамедлительно удалим ее. Файлы для обмена на трекере предоставлены пользователями сайта, и администрация не несет ответственности за их содержание. Просьба не заливать файлы, защищенные авторскими правами, а также файлы нелегального содержания!