[ Сегодня идет свободное скачивание без начисления Download ]


Статистика раздачи
Нет
 
   
 
Top  
 
 
Супер Майк
Magic Mike
«Они делают это за деньги»

Страна: США
Жанр: драма, комедия
Год выпуска: 2012
Продолжительность: 01:50:28
Перевод: Профессиональный (полное дублирование) [Лицензия]
Субтитры: английские, русские, русские (нецензурные)
Оригинальная аудиодорожка: английский
Режиссер: Стивен Содерберг / Steven Soderbergh
В ролях: Ченнинг Татум, Алекс Петтифер, Мэттью МакКонахи, Коуди Хорн, Мэтт Бомер, Джо Манганьелло, Кевин Нэш, Оливия Манн, Адам Родригес, Рид Каролин, Джеймс Мартин Келли, Эйвери Кэмп
Описание:
Это фильм о настоящей мужской дружбе в мире стриптизеров. Главный герой - танцор, который обучает молодого парня, как необходимо вести себя на сцене.
Сэмпл
Качество видео: BDRip-AVC [Blu-ray Remux 1080p]
Формат видео: MKV
Видео кодек: AVC
Аудио кодек: AC3
Видео: 1993 Кбит/сек, 1120*468 (2,35:1), в 23,976 кадр/сек, AVC
Аудио №1: Russian, 384 Кбит/сек, 48,0 КГц, 16 бит, 6 канала(ов), AC-3
Аудио №2: English, 448 Кбит/сек, 48,0 КГц, 16 бит, 6 канала(ов), AC-3
Навигация по главам: есть

MediaInfo

Общее
Уникальный идентификатор : 236186658734896417587550821203647516472 (0xB1AFE556926085EEA1C720A90715CF38)
Полное имя : M:РипыСупер майкMagic.Mike.2012.BDRip-AVC.Dub.2.18Gb...stalkerok.new-team.mkv
Формат : Matroska
Размер файла : 2,18 Гбайт
Продолжительность : 1 ч. 50 м.
Общий поток : 2826 Кбит/сек
Название фильма : Magic Mike (2012) (New-Team) (Rip by Stalker oK)
Дата кодирования : UTC 2015-08-10 09:21:44
Программа кодирования : mkvmerge v7.9.0 ('Birds') 64bit
Библиотека кодирования : libebml v1.3.1 + libmatroska v1.4.2
Видео
Идентификатор : 1
Формат : AVC
Формат/Информация : Advanced Video Codec
Профиль формата : High@L4.1
Параметр CABAC формата : Да
Параметр ReFrames формата : 12 кадры
Идентификатор кодека : V_MPEG4/ISO/AVC
Продолжительность : 1 ч. 50 м.
Битрейт : 1993 Кбит/сек
Ширина : 1120 пикс.
Высота : 468 пикс.
Соотношение сторон : 2,35:1
Частота кадров : 23,976 кадр/сек
Цветовое пространство : YUV
Подвыборка цветности : 4:2:0
Битовая глубина : 8 бит
Тип развёртки : Прогрессивная
Бит/(Пиксели*Кадры) : 0.159
Размер потока : 1,50 Гбайт (69%)
Заголовок : Magic Mike (2012) (New-Team) (Rip by Stalker oK)
Библиотека кодирования : x264 core 146 r2538kMod 121396c
Настройки программы : cabac=1 / ref=12 / deblock=1:-3:-3 / analyse=0x3:0x133 / me=umh / subme=11 / psy=1 / fade_compensate=0.00 / psy_rd=1.00:0.12 / mixed_ref=1 / me_range=48 / chroma_me=1 / trellis=2 / 8x8dct=1 / cqm=0 / deadzone=21,11 / fast_pskip=0 / chroma_qp_offset=-3 / threads=12 / lookahead_threads=3 / sliced_threads=0 / nr=0 / decimate=0 / interlaced=0 / bluray_compat=0 / constrained_intra=0 / fgo=0 / bframes=14 / b_pyramid=2 / b_adapt=2 / b_bias=0 / direct=3 / weightb=1 / open_gop=0 / weightp=2 / keyint=240 / keyint_min=23 / scenecut=40 / intra_refresh=0 / rc_lookahead=60 / rc=2pass / mbtree=0 / bitrate=1993 / ratetol=1.0 / qcomp=0.70 / qpmin=0 / qpmax=69 / qpstep=4 / cplxblur=20.0 / qblur=0.5 / vbv_maxrate=50000 / vbv_bufsize=62500 / nal_hrd=none / filler=0 / ip_ratio=1.40 / pb_ratio=1.30 / aq=3:0.86
Аудио #1
Идентификатор : 2
Формат : AC-3
Формат/Информация : Audio Coding 3
Расширение режима : CM (complete main)
Идентификатор кодека : A_AC3
Продолжительность : 1 ч. 50 м.
Вид битрейта : Постоянный
Битрейт : 384 Кбит/сек
Канал(ы) : 6 канала(ов)
Расположение каналов : Front: L C R, Side: L R, LFE
Частота : 48,0 КГц
Битовая глубина : 16 бит
Метод сжатия : С потерями
Размер потока : 303 Мбайт (14%)
Заголовок : Дублированный
Язык : Russian
Аудио #2
Идентификатор : 6
Формат : AC-3
Формат/Информация : Audio Coding 3
Расширение режима : CM (complete main)
Идентификатор кодека : A_AC3
Продолжительность : 1 ч. 50 м.
Вид битрейта : Постоянный
Битрейт : 448 Кбит/сек
Канал(ы) : 6 канала(ов)
Расположение каналов : Front: L C R, Side: L R, LFE
Частота : 48,0 КГц
Битовая глубина : 16 бит
Метод сжатия : С потерями
Размер потока : 354 Мбайт (16%)
Язык : English
Текст #1
Идентификатор : 3
Формат : UTF-8
Идентификатор кодека : S_TEXT/UTF8
Идентификатор кодека/Информация : UTF-8 Plain Text
Заголовок : Original
Язык : English
Текст #2
Идентификатор : 4
Формат : UTF-8
Идентификатор кодека : S_TEXT/UTF8
Идентификатор кодека/Информация : UTF-8 Plain Text
Язык : Russian
Текст #3
Идентификатор : 5
Формат : UTF-8
Идентификатор кодека : S_TEXT/UTF8
Идентификатор кодека/Информация : UTF-8 Plain Text
Заголовок : нецензурные
Язык : Russian
Меню
00:00:00.000 : en:Chapter 00
00:04:31.854 : en:Chapter 01
00:10:30.379 : en:Chapter 02
00:16:08.509 : en:Chapter 03
00:21:07.182 : en:Chapter 04
00:26:17.867 : en:Chapter 05
00:33:15.326 : en:Chapter 06
00:37:25.284 : en:Chapter 07
00:42:12.154 : en:Chapter 08
00:46:13.353 : en:Chapter 09
00:49:47.776 : en:Chapter 10
00:56:34.182 : en:Chapter 11
00:59:16.427 : en:Chapter 12
01:03:44.445 : en:Chapter 13
01:10:29.058 : en:Chapter 14
01:15:10.005 : en:Chapter 15
01:19:26.970 : en:Chapter 16
01:23:14.614 : en:Chapter 17
01:27:13.311 : en:Chapter 18
01:32:23.955 : en:Chapter 19
01:37:16.872 : en:Chapter 20
01:42:46.118 : en:Chapter 21
01:45:58.393 : en:Chapter 22

[Цитировать]



Показать сообщения:    

Текущее время: 10-Дек 04:16

Часовой пояс: UTC + 3


Вы не можете начинать темы
Вы не можете отвечать на сообщения
Вы не можете редактировать свои сообщения
Вы не можете удалять свои сообщения
Вы не можете голосовать в опросах
Вы не можете прикреплять файлы к сообщениям
Вы не можете скачивать файлы

!ВНИМАНИЕ!
Сайт не предоставляет электронные версии произведений, а занимается лишь коллекционированием и каталогизацией ссылок, присылаемых и публикуемых на форуме нашими читателями. Если вы являетесь правообладателем какого-либо представленного материала и не желаете, чтобы ссылка на него находилась в нашем каталоге, свяжитесь с нами, и мы незамедлительно удалим ее. Файлы для обмена на трекере предоставлены пользователями сайта, и администрация не несет ответственности за их содержание. Просьба не заливать файлы, защищенные авторскими правами, а также файлы нелегального содержания!