[ Сегодня идет свободное скачивание без начисления Download ]


Статистика раздачи
Нет
 
   
 
Top  
 
 

Информация о фильме
Название: Стрела
Оригинальное название: Arrow
Год выхода: 2013-2014
Жанр: Фантастическая драма, детективный боевик, фантастические приключения, комикс
Режиссер: Дэвид Баррет, Дэвид Наттер
В ролях: Стивен Амелл, Кэти Кэссиди, Колин Доннелл, Дэвид Рэмси, Уилла Холлэнд, Сюзанна Томпсон, Пол Блекторн, Колин Сэлмон, Эмили Бетт Рикардс, Энни Айлонзех, Себастьян Данн, Байрон Манн, Роджер Р. Кросс, Мэррет Грин, Ли Винсент, Джон Барроумен, Лесли Ивен
О фильме: Избалованный плейбой Оливер Квин, считавшийся погибшим в кораблекрушении вместе с отцом и девушкой, на самом деле пять лет выживал на затерянном острове в Тихом океане, где пересмотрел свой взгляд на жизнь. За это время мир сильно изменился: его мать вышла замуж за нового владельца империи Квинов, младшая сестра подсела на наркотики, а бывшая девушка стала встречаться с лучшим другом Томми Мерлином. Вернувшись к цивилизации, Оливер решил избавить родной город от преступности, создав неуловимого лучника Стрелу.

Содержание

01. Город героев
02. Найти себя
03. Сломанные куклы
04. Тяжёлое испытание
05. Лига убийц
06. Держи врагов ближе
07. Штат против Куинн
08. Учёный
09. Три призрака
10. Радиус поражения
11. Слепая зона
12. Волнения
13. Наследница демона
14. Время смерти
15. Обещание
16. Отряд самоубийц
17. Хищные птицы
18. Дефстроук
19. Человек в капюшоне
20. В ярости
21. Город в крови
22. Улицы в огне
23. Немыслимое
Выпущено: США
Студия: Berlanti Productions, Berlanti Television, DC Entertainment, DC Entertainment, Warner Bros. Television
Продолжительность: 23 x ~ 00:43:00
Перевод: Профессиональный многоголосый
Файл
Кодек: MPEG-4 AVC
Качество: WEB-DLRip-AVC
Видео: 2100 Кбит/с, 1024x576, 23.976 кадр/с
Звук:
Аудио #1: Русский (AC3, 6 ch, 384 Кбит/с) / Профессиональный многоголосый (LostFilm)
Аудио #2: Русский (AC3, 6 ch, 384 Кбит/с) / Профессиональный многоголосый (BaiBaKo)
Аудио #3: Английский (AC3, 6 ch, 384 Кбит/с)
Субтитры: Английские (Full, SDH)
Семпл

Скриншоты



MI

General
Unique ID : 225221458528967436679138406843487430447 (0xA970133A67DD9A81B630E0CCBE49272F)
Complete name : D:µTorrent загрузкиArrow.S02.WEB-DLRip(AVC)Arrow.S02E01.AVC.MINION.mkv
Format : Matroska
Format version : Version 4 / Version 2
File size : 987 MiB
Duration : 42mn 24s
Overall bit rate : 3 254 Kbps
Movie name : Rip by MINION
Encoded date : UTC 2013-12-21 16:03:15
Writing application : mkvmerge v6.6.0 ('The Edge Of The In Between') built on Dec 1 2013 17:55:00
Writing library : libebml v1.3.0 + libmatroska v1.4.1
Video
ID : 1
Format : AVC
Format/Info : Advanced Video Codec
Format profile : High@L4.1
Format settings, CABAC : Yes
Format settings, ReFrames : 9 frames
Codec ID : V_MPEG4/ISO/AVC
Duration : 42mn 24s
Bit rate : 2 100 Kbps
Width : 1 024 pixels
Height : 576 pixels
Display aspect ratio : 16:9
Frame rate mode : Constant
Frame rate : 23.976 fps
Color space : YUV
Chroma subsampling : 4:2:0
Bit depth : 8 bits
Scan type : Progressive
Bits/(Pixel*Frame) : 0.148
Stream size : 618 MiB (63%)
Title : 01 - Город героев
Writing library : x264 core 138 r2358 9e941d1
Encoding settings : cabac=1 / ref=9 / deblock=1:-1:-1 / analyse=0x3:0x133 / me=umh / subme=10 / psy=1 / psy_rd=1.00:0.10 / mixed_ref=1 / me_range=32 / chroma_me=1 / trellis=2 / 8x8dct=1 / cqm=0 / deadzone=21,11 / fast_pskip=0 / chroma_qp_offset=-3 / threads=6 / lookahead_threads=1 / sliced_threads=0 / nr=0 / decimate=0 / interlaced=0 / bluray_compat=0 / constrained_intra=0 / bframes=9 / b_pyramid=2 / b_adapt=2 / b_bias=0 / direct=3 / weightb=1 / open_gop=0 / weightp=2 / keyint=240 / keyint_min=23 / scenecut=40 / intra_refresh=0 / rc_lookahead=40 / rc=2pass / mbtree=1 / bitrate=2100 / ratetol=1.0 / qcomp=0.60 / qpmin=10 / qpmax=51 / qpstep=4 / cplxblur=20.0 / qblur=0.5 / ip_ratio=1.40 / aq=1:1.00
Language : English
Default : Yes
Forced : No
Audio #1
ID : 2
Format : AC-3
Format/Info : Audio Coding 3
Mode extension : CM (complete main)
Format settings, Endianness : Big
Codec ID : A_AC3
Duration : 42mn 24s
Bit rate mode : Constant
Bit rate : 384 Kbps
Channel count : 6 channels
Channel positions : Front: L C R, Side: L R, LFE
Sampling rate : 48.0 KHz
Bit depth : 16 bits
Compression mode : Lossy
Stream size : 116 MiB (12%)
Title : LostFilm
Language : Russian
Default : Yes
Forced : No
Audio #2
ID : 3
Format : AC-3
Format/Info : Audio Coding 3
Mode extension : CM (complete main)
Format settings, Endianness : Big
Codec ID : A_AC3
Duration : 42mn 24s
Bit rate mode : Constant
Bit rate : 384 Kbps
Channel count : 6 channels
Channel positions : Front: L C R, Side: L R, LFE
Sampling rate : 48.0 KHz
Bit depth : 16 bits
Compression mode : Lossy
Stream size : 116 MiB (12%)
Title : BaibaKo
Language : Russian
Default : No
Forced : No
Audio #3
ID : 4
Format : AC-3
Format/Info : Audio Coding 3
Mode extension : CM (complete main)
Format settings, Endianness : Big
Codec ID : A_AC3
Duration : 42mn 24s
Bit rate mode : Constant
Bit rate : 384 Kbps
Channel count : 6 channels
Channel positions : Front: L C R, Side: L R, LFE
Sampling rate : 48.0 KHz
Bit depth : 16 bits
Compression mode : Lossy
Stream size : 116 MiB (12%)
Language : English
Default : No
Forced : No
Text #1
ID : 5
Format : UTF-8
Codec ID : S_TEXT/UTF8
Codec ID/Info : UTF-8 Plain Text
Title : SRT - Full
Language : English
Default : No
Forced : No
Text #2
ID : 6
Format : UTF-8
Codec ID : S_TEXT/UTF8
Codec ID/Info : UTF-8 Plain Text
Title : SRT - Full SDH
Language : English
Default : No
Forced : No
Релиз от:

[Цитировать]

Топик был перенесен из форума Другие сериалы в форум Зарубежные сериалы
Prizr@k



Показать сообщения:    

Текущее время: 02-Дек 21:10

Часовой пояс: UTC + 3


Вы не можете начинать темы
Вы не можете отвечать на сообщения
Вы не можете редактировать свои сообщения
Вы не можете удалять свои сообщения
Вы не можете голосовать в опросах
Вы не можете прикреплять файлы к сообщениям
Вы не можете скачивать файлы

!ВНИМАНИЕ!
Сайт не предоставляет электронные версии произведений, а занимается лишь коллекционированием и каталогизацией ссылок, присылаемых и публикуемых на форуме нашими читателями. Если вы являетесь правообладателем какого-либо представленного материала и не желаете, чтобы ссылка на него находилась в нашем каталоге, свяжитесь с нами, и мы незамедлительно удалим ее. Файлы для обмена на трекере предоставлены пользователями сайта, и администрация не несет ответственности за их содержание. Просьба не заливать файлы, защищенные авторскими правами, а также файлы нелегального содержания!