[ Сегодня идет свободное скачивание без начисления Download ]


Статистика раздачи
Нет
 
   
 
Top  
 
 

Информация о фильме
Название: Стрела
Оригинальное название: Arrow
Год выхода: 2014-2015
Жанр: Фантастика, драма, детектив, боевик, приключения, комикс
Режиссер: Дэвид Баррет, Дэвид Наттер
В ролях: Стивен Амелл, Кэти Кэссиди, Колин Доннелл, Дэвид Рэмси, Уилла Холлэнд, Сюзанна Томпсон, Пол Блекторн, Колин Сэлмон, Эмили Бетт Рикардс, Энни Айлонзех, Себастьян ДаннИвен, Байрон Манн, Роджер Р. Кросс, Мэррет Грин, Ли Винсент, Джон Барроумен, Лесли
О фильме:
Избалованный плейбой Оливер Квин, считавшийся погибшим в кораблекрушении вместе с отцом и девушкой, на самом деле пять лет выживал на затерянном острове в Тихом океане, где пересмотрел свой взгляд на жизнь. За это время мир сильно изменился: его мать вышла замуж за нового владельца империи Квинов, младшая сестра подсела на наркотики, а бывшая девушка стала встречаться с лучшим другом Томми Мерлином. Вернувшись к цивилизации, Оливер решил избавить родной город от преступности, создав неуловимого лучника Стрелу.

Страна: США
Студия: Berlanti Productions, Berlanti Television, DC Entertainment, DC Entertainment, Warner Bros. Television
Продолжительность: 23 x ~ 00:43:00
Перевод: Профессиональный многоголосый
Кодек: x264
Качество: WEB-DLRip (AVC)
Видео: MPEG-4 AVC, ~ 2300 Кбит/с, 1024x576, 23.976 кадр/с
Звук:
Аудио #1: Русский (AC3, 6 ch, 384 Кбит/с) / Профессиональный многоголосый (LostFilm)
Аудио #2: Русский (AC3, 6 ch, 384 Кбит/с) / Профессиональный многоголосый (NewStudio)
Аудио #3: Русский (AC3, 6 ch, 384 Кбит/с) / Профессиональный многоголосый (BaiBaKo)
Аудио #4: Английский (AC3, 6 ch, 384 Кбит/с)
Субтитры: Английские (Full, SDH)
Семпл

Награды

Сатурн, 2013 год
Номинации (1):
- Лучший сериал для молодежи на ТВ
Сатурн, 2014 год
Номинации (1):
- Лучший сериал для молодежи на ТВ

Содержание

01. Затишье
02. Сара
03. Корте Мальтез
04. Колдун
05. Тайны прошлого Фелисити Смоук
06. Виновен
07. Придержи свой лук
08. Отважный и смелый
09. Восхождение
10. Оставленные
11. Полуночный город
12. Восстание
13. Канарейки
14. Возвращение
15. Нанда Парбат
16. Предложение
17. Суицидальные наклонности
18. Общий враг
19. Сломанная стрела
20. Павшие
21. Аль-Сахим
22. Таков твой меч
23. Меня зовут Оливер Куин

MI

General
Unique ID : 218664177604455187190728520559687824161 (0xA481305159F14702B874A10975DAF321)
Complete name : Arrow.S03.2014-2015.WEB-DLRip.AVC.MediaClubArrow.S03E01.WEB-DLRip.AVC.MediaClub.mkv
Format : Matroska
Format version : Version 4 / Version 2
File size : 1.14 GiB
Duration : 42mn 33s
Overall bit rate : 3 838 Kbps
Movie name : release MediaClub - MINION
Encoded date : UTC 2015-05-03 09:55:40
Writing application : mkvmerge v7.5.0 ('Glass Culture') 64bit built on Jan 4 2015 16:48:44
Writing library : libebml v1.3.1 + libmatroska v1.4.2
Video
ID : 1
Format : AVC
Format/Info : Advanced Video Codec
Format profile : High@L4.1
Format settings, CABAC : Yes
Format settings, ReFrames : 9 frames
Codec ID : V_MPEG4/ISO/AVC
Duration : 42mn 33s
Bit rate : 2 300 Kbps
Width : 1 024 pixels
Height : 576 pixels
Display aspect ratio : 16:9
Frame rate mode : Constant
Frame rate : 23.976 fps
Color space : YUV
Chroma subsampling : 4:2:0
Bit depth : 8 bits
Scan type : Progressive
Bits/(Pixel*Frame) : 0.163
Stream size : 678 MiB (58%)
Title : Стрела / 3 сезон / 1 серия - Затишье
Writing library : x264 core 146 r2538 121396c
Encoding settings : cabac=1 / ref=9 / deblock=1:-3:-3 / analyse=0x3:0x133 / me=umh / subme=11 / psy=1 / psy_rd=1.00:0.10 / mixed_ref=1 / me_range=32 / chroma_me=1 / trellis=2 / 8x8dct=1 / cqm=0 / deadzone=21,11 / fast_pskip=0 / chroma_qp_offset=-3 / threads=6 / lookahead_threads=1 / sliced_threads=0 / nr=0 / decimate=0 / interlaced=0 / bluray_compat=0 / constrained_intra=0 / bframes=8 / b_pyramid=2 / b_adapt=2 / b_bias=0 / direct=3 / weightb=1 / open_gop=0 / weightp=2 / keyint=240 / keyint_min=23 / scenecut=40 / intra_refresh=0 / rc=2pass / mbtree=0 / bitrate=2300 / ratetol=1.0 / qcomp=0.60 / qpmin=10 / qpmax=51 / qpstep=4 / cplxblur=20.0 / qblur=0.5 / ip_ratio=1.40 / pb_ratio=1.30 / aq=1:1.00
Language : English
Default : Yes
Forced : No
Audio #1
ID : 2
Format : AC-3
Format/Info : Audio Coding 3
Mode extension : CM (complete main)
Format settings, Endianness : Big
Codec ID : A_AC3
Duration : 42mn 33s
Bit rate mode : Constant
Bit rate : 384 Kbps
Channel(s) : 6 channels
Channel positions : Front: L C R, Side: L R, LFE
Sampling rate : 48.0 KHz
Compression mode : Lossy
Stream size : 117 MiB (10%)
Title : MVO - LostFilm
Language : Russian
Default : Yes
Forced : No
Audio #2
ID : 3
Format : AC-3
Format/Info : Audio Coding 3
Mode extension : CM (complete main)
Format settings, Endianness : Big
Codec ID : A_AC3
Duration : 42mn 33s
Bit rate mode : Constant
Bit rate : 384 Kbps
Channel(s) : 6 channels
Channel positions : Front: L C R, Side: L R, LFE
Sampling rate : 48.0 KHz
Compression mode : Lossy
Stream size : 117 MiB (10%)
Title : MVO - NewStudio
Language : Russian
Default : No
Forced : No
Audio #3
ID : 4
Format : AC-3
Format/Info : Audio Coding 3
Mode extension : CM (complete main)
Format settings, Endianness : Big
Codec ID : A_AC3
Duration : 42mn 33s
Bit rate mode : Constant
Bit rate : 384 Kbps
Channel(s) : 6 channels
Channel positions : Front: L C R, Side: L R, LFE
Sampling rate : 48.0 KHz
Compression mode : Lossy
Stream size : 117 MiB (10%)
Title : MVO - BaibaKo
Language : Russian
Default : No
Forced : No
Audio #4
ID : 5
Format : AC-3
Format/Info : Audio Coding 3
Mode extension : CM (complete main)
Format settings, Endianness : Big
Codec ID : A_AC3
Duration : 42mn 33s
Bit rate mode : Constant
Bit rate : 384 Kbps
Channel(s) : 6 channels
Channel positions : Front: L C R, Side: L R, LFE
Sampling rate : 48.0 KHz
Compression mode : Lossy
Stream size : 117 MiB (10%)
Language : English
Default : No
Forced : No
Text #1
ID : 6
Format : UTF-8
Codec ID : S_TEXT/UTF8
Codec ID/Info : UTF-8 Plain Text
Title : SRT - Full
Language : English
Default : No
Forced : No
Text #2
ID : 7
Format : UTF-8
Codec ID : S_TEXT/UTF8
Codec ID/Info : UTF-8 Plain Text
Title : SRT - Full SDH
Language : English
Default : No
Forced : No

Скриншоты

Релиз от: |

[Цитировать]

Топик был перенесен из форума Другие сериалы в форум Зарубежные сериалы
Prizr@k



Показать сообщения:    

Текущее время: 08-Дек 23:08

Часовой пояс: UTC + 3


Вы не можете начинать темы
Вы не можете отвечать на сообщения
Вы не можете редактировать свои сообщения
Вы не можете удалять свои сообщения
Вы не можете голосовать в опросах
Вы не можете прикреплять файлы к сообщениям
Вы не можете скачивать файлы

!ВНИМАНИЕ!
Сайт не предоставляет электронные версии произведений, а занимается лишь коллекционированием и каталогизацией ссылок, присылаемых и публикуемых на форуме нашими читателями. Если вы являетесь правообладателем какого-либо представленного материала и не желаете, чтобы ссылка на него находилась в нашем каталоге, свяжитесь с нами, и мы незамедлительно удалим ее. Файлы для обмена на трекере предоставлены пользователями сайта, и администрация не несет ответственности за их содержание. Просьба не заливать файлы, защищенные авторскими правами, а также файлы нелегального содержания!