[ Сегодня идет свободное скачивание без начисления Download ]


Статистика раздачи
Нет
 
   
 
Top  
 
 
Информация о фильме
Название: Ходячие мертвецы
Оригинальное название: The Walking Dead
Год выхода: 2010
Жанр: Ужасы, триллер, драма
Режиссер: Эрнест Р. Дикерсон, Гай Ферленд, Гвинет Хордер-Пэйтон
В ролях: Эндрю Линкольн, Джон Бернтал, Сара Уэйн Кэллис, Лори Холден, Джеффри ДеМанн, Стивен Юн, Чендлер Риггз, Норман Ридус, Айрон Э. Синглтон, Мелисса Сюзанн МакБрайд
О фильме:
Сериал рассказывает историю жизни семьи шерифа после того, как «зомби» — эпидемия апокалипсических масштабов захлестнула земной шар. Шериф Рик Грайм путешествует со своей семьей и небольшой группой выживших в поисках безопасного места для жизни. Но постоянный страх смерти каждый день приносит тяжелые потери, заставляя героев почувствовать глубины человеческой жестокости. Рик пытается спасти свою семью, и открывает для себя, что всепоглощающий страх тех, кто выжил, может быть опаснее бессмысленных мертвецов, бродящих по земле.

Список серий:

Сезон 1
01. Дни, Ушедшие Навсегда / Days Gone Bye
02. Кишки / Guts
03. Скажи Это Лягушкам / Tell It to the Frogs
04. Братаны / Vatos
05. Лесной пожар / Wildfire
06. ТС-19 / TS-19
Сезон 2
01. Что ждет впереди / What Lies Ahead
02. Кровопускание / Bloodletting
03. Прибереги последний / Save the Last One
04. Роза Чероки / Cherokee Rose
05. Чупакабра / Chupacabra
06. Тайны / Secrets
07. Почти мертв / Pretty Much Dead Already
08. Небраска / Nebraska
09. Палец на курке / Triggerfinger
10. Еще 18 миль / 18 Miles Out
11. Судья, присяжный и палач / Judge, Jury, Executioner
12. Новые ангелы / Better Angels
13. Около умирающего огня / Beside the Dying Fire
Сезон 3
01. Семена / Seed
02. Больной / Sick
03. Пройдемся / Walk with Me
04. Убийца внутри / Killer Within
05. Только скажи / Say the Word
06. Затравленные / Hounded
07. Когда мертвые стучатся / When the Dead Come Knocking
08. Перемотка / Rewind
09. Король самоубийства / The Suicide King
10. Дом / Home
11. Я не Иуда / I Ain't a Judas
12. Очищенный / Clear
13. Стрела на дверном косяке / Arrow on the Doorpost
14. Добыча / Prey
15. Эта горестная жизнь / This Sorrowful Life
16. Добро пожаловать в могилы / «Welcome to the Tombs
Сезон 4
01. 30 дней без происшествий / 30 Days Without an Accident
02. Инфекция / Infected
03. Изоляция / Isolation
04. Безразличие / Indifference
05. Погребение / Internment
06. Живая приманка / Live Bait
07. Мёртвый груз / Dead Weight
08. Зайдя слишком далеко / Too Far Gone
09. После / After
10. Беглецы / Inmates
11. Присвоенное / Claimed
12. Тупик / Still
13. Одиночество / Alone
14. Роща / The Grove
15. Мы / Us
16. А
Сезон 5
01. Убежища Нет / No Sanctuary
02. Незнакомцы / Strangers
03. Четыре стены и крыша / Four Walls and a Roof
04. Слэбтаун / Slabtown
05. Самопомощь / Self Help
06. Поглощенный / Consumed
07. Крещеный / Crossed
08. Хвост / Coda
09. Что случилось и что происходит / What Happened and What's Going On
10. К ним / Them
11. Расстояние / The Distance
12. Помни / Remember
13. Забыть / Forget
14. Тратить / Spend
15. Пытаться / Try
16. Подчинить / Conquer
Страна: США
Студия: AMC Studios, American Movie Classics (AMC), Circle of Confusion, Darkwoods Productions, Valhalla Motion Pictures
Продолжительность: 1 x ~01:07:00, 66 x ~00:43:00
Перевод: Профессиональный (многоголосый, закадровый) [LostFilm]
Файл
Формат: MP4
Качество: WEB-DLRip | КПК
Видео: MPEG-4 AVC (x264), 640x360, ~500 kbps, 23.976 fps
Аудио: AAC LC, 48.0 KHz, 2 ch, 128 Kbps
Субтитры: Нет
Семпл

Скриншоты

MI

Complete name : E:KinoHodjachie.Mertvecy.AVC.WEB-DLRip.KPK.LF.GeneralfilmHodjachie.Mertvecy.S05.2014-2015.AVC.WEB-DLRip.KPK.LF.GeneralfilmHodjachie.Mertvecy.s05e16.2015.AVC.WEB-DLRip.KPK.LF.Generalfilm.mp4
Format : MPEG-4
Format profile : Base Media
Codec ID : isom
File size : 293 MiB
Duration : 1h 4mn
Overall bit rate mode : Variable
Overall bit rate : 632 Kbps
Encoded date : UTC 2015-04-07 11:00:49
Tagged date : UTC 2015-04-07 11:00:49
Video
ID : 1
Format : AVC
Format/Info : Advanced Video Codec
Format profile : High@L4.1
Format settings, CABAC : Yes
Format settings, ReFrames : 8 frames
Codec ID : avc1
Codec ID/Info : Advanced Video Coding
Duration : 1h 4mn
Bit rate : 500 Kbps
Maximum bit rate : 2 555 Kbps
Width : 640 pixels
Height : 360 pixels
Display aspect ratio : 16:9
Frame rate mode : Constant
Frame rate : 23.976 fps
Color space : YUV
Chroma subsampling : 4:2:0
Bit depth : 8 bits
Scan type : Progressive
Bits/(Pixel*Frame) : 0.091
Stream size : 232 MiB (79%)
Writing library : x264 core 130 r2273 b3065e6
Encoding settings : cabac=1 / ref=8 / deblock=1:-2:-2 / analyse=0x3:0x133 / me=umh / subme=10 / psy=1 / psy_rd=1.00:0.00 / mixed_ref=1 / me_range=24 / chroma_me=1 / trellis=2 / 8x8dct=1 / cqm=0 / deadzone=21,11 / fast_pskip=1 / chroma_qp_offset=-2 / threads=12 / lookahead_threads=2 / sliced_threads=0 / nr=0 / decimate=0 / interlaced=0 / bluray_compat=0 / constrained_intra=0 / bframes=8 / b_pyramid=2 / b_adapt=2 / b_bias=0 / direct=3 / weightb=1 / open_gop=0 / weightp=2 / keyint=240 / keyint_min=121 / scenecut=40 / intra_refresh=0 / rc_lookahead=40 / rc=2pass / mbtree=1 / bitrate=500 / ratetol=1.0 / qcomp=0.60 / qpmin=0 / qpmax=69 / qpstep=4 / cplxblur=20.0 / qblur=0.5 / ip_ratio=1.40 / aq=1:1.00
Encoded date : UTC 2015-04-07 11:00:49
Tagged date : UTC 2015-04-07 11:00:54
Audio
ID : 2
Format : AAC
Format/Info : Advanced Audio Codec
Format profile : LC
Codec ID : 40
Duration : 1h 4mn
Bit rate mode : Variable
Bit rate : 128 Kbps
Maximum bit rate : 154 Kbps
Channel count : 2 channels
Channel positions : Front: L R
Sampling rate : 48.0 KHz
Compression mode : Lossy
Delay relative to video : 83ms
Stream size : 59.3 MiB (20%)
Encoded date : UTC 2015-04-07 11:00:53
Tagged date : UTC 2015-04-07 11:00:54

[Цитировать]



Показать сообщения:    

Текущее время: 10-Дек 07:59

Часовой пояс: UTC + 3


Вы не можете начинать темы
Вы не можете отвечать на сообщения
Вы не можете редактировать свои сообщения
Вы не можете удалять свои сообщения
Вы не можете голосовать в опросах
Вы не можете прикреплять файлы к сообщениям
Вы не можете скачивать файлы

!ВНИМАНИЕ!
Сайт не предоставляет электронные версии произведений, а занимается лишь коллекционированием и каталогизацией ссылок, присылаемых и публикуемых на форуме нашими читателями. Если вы являетесь правообладателем какого-либо представленного материала и не желаете, чтобы ссылка на него находилась в нашем каталоге, свяжитесь с нами, и мы незамедлительно удалим ее. Файлы для обмена на трекере предоставлены пользователями сайта, и администрация не несет ответственности за их содержание. Просьба не заливать файлы, защищенные авторскими правами, а также файлы нелегального содержания!