[ Сегодня идет свободное скачивание без начисления Download ]


Статистика раздачи
Нет
 
   
 
Top  
 
 

Год выпуска: 2015
Страна: Россия
Жанр: драма, криминал
Продолжительность: ~ 00:44:00
Перевод: Оригинал (русский)
Режиссер: Игорь Хомский, Иван Бурлаков
В ролях: Аристарх Венес, Никита Павленко, Игорь Огурцов, Александр Мельников, Даниил Вахрушев, Владимир Сычёв, Александр Петров, Юлия Хлынина, Елизавета Кононова, Дарья Руденок, Светлана Садковская, Роман Синицын
Описание: Четыре парня с окраины Москвы решают заработать легких денег — перегнать машину с краденым грузом внутри. Не особо задумываясь о последствиях, они совершают одну ошибку за другой, и очень скоро у них появляются серьезные проблемы с законом. Теперь пути назад нет и, чтобы выжить, четырем друзьям нужно во что бы то ни стало держаться вместе.

Видео кодек: MPEG-4 AVC
Качество: WEB-DL 720p
Параметры Видео: 1280x720, 25.000 fps; ~1 850 kbps avg
Параметры Звука: 48.0 KHz, AAC, ~192.00 kbps avg, 2ch
Формат: mp4
Автор рипа:
Релиз-группа:

Meta Tags

MI

General
Complete name : E:Zakon_kamennyx_dzhunglej.2015.O.WEB-DL.720p_KinoGadgetZakon_kamennyx_dzhunglej.2015.1.seriya.O.WEB-DL.720p_KinoGadget.mp4
Format : MPEG-4
Format profile : Base Media
Codec ID : isom
File size : 636 MiB
Duration : 43mn 47s
Overall bit rate mode : Variable
Overall bit rate : 2 031 Kbps
Movie name : Закон каменных джунглей (1 серия)
Performer : Игорь Хомский, Иван Бурлаков
Genre : Crime, Drama
ContentType : Short Film
Recorded date : 2015
Encoded date : UTC 2015-03-21 23:15:01
Tagged date : UTC 2015-03-23 15:42:31
Cover : Yes
LongDeion : Четыре парня с окраины Москвы решают заработать легких денег — перегнать машину с краденым грузом внутри. Не особо задумываясь о последствиях, они совершают одну ошибку за другой, и очень скоро у них появляются серьезные проблемы с законом. Теперь пути назад нет и, чтобы выжить, четырем друзьям нужно во что бы то ни стало держаться вместе.
HDVideo : Yes
Video
ID : 1
Format : AVC
Format/Info : Advanced Video Codec
Format profile : High@L4.1
Format settings, CABAC : Yes
Format settings, ReFrames : 11 frames
Codec ID : avc1
Codec ID/Info : Advanced Video Coding
Duration : 43mn 47s
Bit rate : 1 830 Kbps
Maximum bit rate : 5 071 Kbps
Width : 1 280 pixels
Height : 720 pixels
Display aspect ratio : 16:9
Frame rate mode : Constant
Frame rate : 25.000 fps
Color space : YUV
Chroma subsampling : 4:2:0
Bit depth : 8 bits
Scan type : Progressive
Bits/(Pixel*Frame) : 0.079
Stream size : 573 MiB (90%)
Writing library : x264 core 130 r2273 b3065e6
Encoding settings : cabac=1 / ref=11 / deblock=1:-1:-1 / analyse=0x3:0x133 / me=umh / subme=10 / psy=1 / psy_rd=1.00:0.20 / mixed_ref=1 / me_range=24 / chroma_me=1 / trellis=2 / 8x8dct=1 / cqm=0 / deadzone=21,11 / fast_pskip=0 / chroma_qp_offset=-3 / threads=3 / lookahead_threads=1 / sliced_threads=0 / nr=0 / decimate=1 / interlaced=0 / bluray_compat=0 / constrained_intra=0 / bframes=6 / b_pyramid=2 / b_adapt=2 / b_bias=0 / direct=3 / weightb=1 / open_gop=0 / weightp=2 / keyint=250 / keyint_min=25 / scenecut=40 / intra_refresh=0 / rc_lookahead=60 / rc=crf / mbtree=1 / crf=21.0 / qcomp=0.60 / qpmin=0 / qpmax=69 / qpstep=4 / ip_ratio=1.40 / aq=1:1.00
Encoded date : UTC 2015-03-21 23:15:01
Tagged date : UTC 2015-03-21 23:15:12
Audio
ID : 2
Format : AAC
Format/Info : Advanced Audio Codec
Format profile : LC
Codec ID : 40
Duration : 43mn 47s
Bit rate mode : Variable
Bit rate : 192 Kbps
Maximum bit rate : 237 Kbps
Channel count : 2 channels
Channel positions : Front: L R
Sampling rate : 48.0 KHz
Compression mode : Lossy
Delay relative to video : 120ms
Stream size : 60.1 MiB (9%)
Encoded date : UTC 2015-03-21 23:15:10
Tagged date : UTC 2015-03-21 23:15:12

Скриншоты

[Цитировать]



Показать сообщения:    

Текущее время: 08-Дек 05:07

Часовой пояс: UTC + 3


Вы не можете начинать темы
Вы не можете отвечать на сообщения
Вы не можете редактировать свои сообщения
Вы не можете удалять свои сообщения
Вы не можете голосовать в опросах
Вы не можете прикреплять файлы к сообщениям
Вы не можете скачивать файлы

!ВНИМАНИЕ!
Сайт не предоставляет электронные версии произведений, а занимается лишь коллекционированием и каталогизацией ссылок, присылаемых и публикуемых на форуме нашими читателями. Если вы являетесь правообладателем какого-либо представленного материала и не желаете, чтобы ссылка на него находилась в нашем каталоге, свяжитесь с нами, и мы незамедлительно удалим ее. Файлы для обмена на трекере предоставлены пользователями сайта, и администрация не несет ответственности за их содержание. Просьба не заливать файлы, защищенные авторскими правами, а также файлы нелегального содержания!