[ Сегодня идет свободное скачивание без начисления Download ]


Статистика раздачи
Нет
 
   
 
Top  
 
 

Информация о фильме
Название: Тупой и еще тупее 2
Оригинальное название: Dumb and Dumber To
Год выхода: 2014
Жанр: комедия
Режиссер: Питер Фаррелли / Peter Farrelly, Бобби Фаррелли / Bobby Farrelly
В ролях: Джим Керри, Джефф Дэниелс, Роб Риггл, Лори Холден, Рэйчел Мелвин, Кэтлин Тёрнер, Стив Том, Дон Лейк, Патриция Френч, Грегори Фиэрс
О фильме:
Ллойд стал постоянным клиентом психиатрической больницы, Гарри же болен и для него нет шансов вылечиться. Возраст берет свое, но на умственных способностях это не отразилось: парочка осталось такой же недалекой, как раньше. 20 лет Ллойд находится под присмотром психиатров — какие тут приключения! Но его плохое состояние — всего лишь обман! Именно вопрос здоровья сводит снова двух друзей, ведь Гарри срочно нужен новый орган. Но комики пускаются в путь не за донором, а за... ребенком Гарри! Оказывается, уже давно одна дама стала матерью, а отцом записали именно его — даже не подозревающего о существовании дочери. Как всегда, в пути их ожидает много курьезов!

Страна: США
Студия: Conundrum Entertainment, New Line Cinema, Red Granite Pictures, Universal Pictures
Продолжительность: 01:49:30
Перевод: Профессиональный многоголосый (GearsMedia)
Файл
Кодек: XviD
Качество: HDRip (Исх. BDRip 720p)
Видео: 720x384 (1.88:1), 23.976 fps, XviD build 73 ~1771 kbps avg, 0.27 bit/pixel
Аудио: 48 kHz, AC3 Dolby Digital, 3/2 (L,C,R,l,r) + LFE ch, ~448.00 kbps avg (Rus)
Аудио 2: 48 kHz, AC3 Dolby Digital, 3/2 (L,C,R,l,r) + LFE ch, ~448.00 kbps avg (Eng)
Субтитры: английские (full, SDH, colored SDH) (Отдельно)
Семпл

MediaInfo

Общее
Полное имя : S:ФильмыТупой и еще тупее. 2014. HDRip. 2.05 ГБ. (AleksSin)Тупой и еще тупее. 2014. HDRip (AleksSin).avi
Формат : AVI
Формат/Информация : Audio Video Interleave
Профиль формата : OpenDML
Размер файла : 2,05 Гбайт
Продолжительность : 1 ч. 49 м.
Общий поток : 2685 Кбит/сек
Программа кодирования : VirtualDubModRus 1.5.10.2 (build 2542/release)
Библиотека кодирования : VirtualDubMod build 2542/release
Видео
Идентификатор : 0
Формат : MPEG-4 Visual
Профиль формата : Advanced Simple@L5
Параметр BVOP формата : 1
Параметр QPel формата : Нет
Параметр GMC формата : Без точки перехода
Параметр матрицы формата : Выборочная
Идентификатор кодека : XVID
Идентификатор кодека/Подсказка : XviD
Продолжительность : 1 ч. 49 м.
Битрейт : 1771 Кбит/сек
Ширина : 720 пикс.
Высота : 384 пикс.
Соотношение сторон : 1,875
Частота кадров : 23,976 кадр/сек
Цветовое пространство : YUV
Подвыборка цветности : 4:2:0
Битовая глубина : 8 бит
Тип развёртки : Прогрессивная
Метод сжатия : С потерями
Бит/(Пиксели*Кадры) : 0.267
Размер потока : 1,35 Гбайт (66%)
Библиотека кодирования : XviD 73
Аудио #1
Идентификатор : 1
Формат : AC-3
Формат/Информация : Audio Coding 3
Расширение режима : CM (complete main)
Идентификатор кодека : 2000
Продолжительность : 1 ч. 49 м.
Вид битрейта : Постоянный
Битрейт : 448 Кбит/сек
Каналы : 6 каналов
Расположение каналов : Front: L C R, Side: L R, LFE
Частота : 48,0 КГц
Битовая глубина : 16 бит
Метод сжатия : С потерями
Размер потока : 351 Мбайт (17%)
Выравнивание : Разделение по промежуткам
Продолжительность промежутка : 42 мс. (1,00 видеокадр)
Время предзагрузки промежутка : 500 ms
Аудио #2
Идентификатор : 2
Формат : AC-3
Формат/Информация : Audio Coding 3
Расширение режима : CM (complete main)
Идентификатор кодека : 2000
Продолжительность : 1 ч. 49 м.
Вид битрейта : Постоянный
Битрейт : 448 Кбит/сек
Каналы : 6 каналов
Расположение каналов : Front: L C R, Side: L R, LFE
Частота : 48,0 КГц
Битовая глубина : 16 бит
Метод сжатия : С потерями
Размер потока : 351 Мбайт (17%)
Выравнивание : Разделение по промежуткам
Продолжительность промежутка : 42 мс. (1,00 видеокадр)
Время предзагрузки промежутка : 500 ms

Скриншоты

Релиз от:

[Цитировать]

Топик был перенесен из форума Новинки кинопроката в форум Комедия
Henkok



Показать сообщения:    

Текущее время: 30-Мар 05:00

Часовой пояс: UTC + 6


Вы не можете начинать темы
Вы не можете отвечать на сообщения
Вы не можете редактировать свои сообщения
Вы не можете удалять свои сообщения
Вы не можете голосовать в опросах
Вы не можете прикреплять файлы к сообщениям
Вы не можете скачивать файлы

!ВНИМАНИЕ!
Сайт не предоставляет электронные версии произведений, а занимается лишь коллекционированием и каталогизацией ссылок, присылаемых и публикуемых на форуме нашими читателями. Если вы являетесь правообладателем какого-либо представленного материала и не желаете, чтобы ссылка на него находилась в нашем каталоге, свяжитесь с нами, и мы незамедлительно удалим ее. Файлы для обмена на трекере предоставлены пользователями сайта, и администрация не несет ответственности за их содержание. Просьба не заливать файлы, защищенные авторскими правами, а также файлы нелегального содержания!