[ Сегодня идет свободное скачивание без начисления Download ]


Статистика раздачи
Нет
 
   
 
Top  
 
 
Страна: Россия
Жанр: мультфильм, короткометражка, комедия, семейный
Год выпуска: 2009-2015
Продолжительность: серия ~ 7 минут
Перевод: не требуется
Оригинальная аудиодорожка: русский
Cубтитры: нет
Режиссеры: Олег Кузовков, Олег Ужинов, Денис Червяцов...
Роли озвучивали: Алина Кукушкина, Борис Кутневич, Эдуард Назаров
Описание: Мультсериал про девочку Машу, которая никому не дает покоя, и в первую очередь — своему другу Медведю.- -Исходник: Blu-ray 1080p, HDTV 1080p
Тип релиза: BDRip-AVC с 1 - 47 серии, HDTVRip-AVC c 48 - 50 серии
Контейнер: MKV
Видео: 1024х576, (16:9), 25 fps, H264 ~ 1940 kbps, 0.132 bit/pixel
Аудио: 48 kHz, AC3, 2 ch, 192.00 kbps
Раздача от:

Список серий

01. Первая встреча!(00:06:53)
02. До весны не будить!(00:06:53)
03. Раз, два, три! Ёлочка, гори!(00:08:06)
04. Весна пришла!(00:07:01)
05. Ловись рыбка!(00:06:55)
06. Следы невиданных зверей(00:07:17)
07. С волками жить...(00:07:13)
08. Позвони мне, позвони!(00:07:11)
09. День варенья(00:06:50)
10. Праздник на льду(00:06:52)
11. Первый раз в первый класс(00:07:07)
12. Граница на замке(00:06:59)
13. Кто не спрятался, я не виноват(00:06:41)
14. Лыжню!(00:06:59)
15. Будьте здоровы!(00:06:58)
16. Маша + каша(00:06:51)
17. Дальний родственник(00:06:58)
18. Большая стирка(00:06:46)
19. Репетиция оркестра(00:07:13)
20. Усатый полосатый(00:07:14)
21. Один дома(00:07:11)
22. Дышите! Не дышите!(00:07:10)
23. Подкидыш (00:07:13)
24. Приятного аппетита (00:07:12)
25. Фокус-покус (00:07:12)
26. Осторожно, ремонт! (00:07:11)
27. Картина маслом (00:07:09)
28. Ход конём (00:06:54)
29. Хит сезона (00:06:53)
30. Витамин роста (00:06:59)
31. Новая метла (00:06:54)
32. Когда все дома (00:06:57)
33. Сладкая жизнь (00:06:56)
34. Фотография 9х12 (00:06:56)
35. Трудно быть маленьким (00:06:48)
36. Двое на одного (00:06:50)
37. Большое путешествие (00:06:53)
38. Нынче всё наоборот (00:06:53)
39. Сказка на ночь (00:06:54)
40. Красота страшная сила (00:06:53)
41. Дело в шляпе (00:06:49)
42. День кино (00:06:54)
43. Героями не рождаются (00:06:50)
44. Раз в году (00:06:46)
45. Запутанная история (00:06:58)
46. Учитель танцев (00:06:54)
47. Крик победы (00:07:33)
48. Пещерный медведь (00:06:59)
49. Дорогая передача (00:06:49)
50. Праздник урожая (00:07:08)

MediaInfo

Общее
Полное имя : Masha.i.Medved_[New-team]_by_AVP_Studio39.Skazka.na.noch.mkv
Формат : Matroska
Версия формата : Version 2
Размер файла : 105 Мбайт
Продолжительность : 6 м. 54 с.
Общий поток : 2135 Кбит/сек
Название фильма : - = Rip by tahiy = -
Дата кодирования : UTC 2015-01-16 09:22:34
Программа кодирования : mkvmerge v6.1.0 ('Old Devil') built on Mar 4 2013 09:10:42
Библиотека кодирования : libebml v1.3.0 + libmatroska v1.4.0
Видео
Идентификатор : 1
Формат : AVC
Формат/Информация : Advanced Video Codec
Профиль формата : [email protected]
Параметр CABAC формата : Да
Параметр ReFrames формата : 8 кадров
Идентификатор кодека : V_MPEG4/ISO/AVC
Продолжительность : 6 м. 54 с.
Битрейт : 1940 Кбит/сек
Ширина : 1024 пикселя
Высота : 576 пикселей
Соотношение сторон : 16:9
Режим частоты кадров : Постоянный
Частота кадров : 25,000 кадров/сек
Цветовое пространство : YUV
Субдискретизация насыщенности : 4:2:0
Битовая глубина : 8 бит
Тип развёртки : Прогрессивная
Бит/(Пиксели*Кадры) : 0.132
Размер потока : 93,9 Мбайт (89%)
Библиотека кодирования : x264 core 138 r2356 a1d3d17
Настройки программы : cabac=1 / ref=8 / deblock=1:-3:-2 / analyse=0x3:0x113 / me=umh / subme=10 / psy=1 / psy_rd=1.00:0.05 / mixed_ref=1 / me_range=32 / chroma_me=1 / trellis=2 / 8x8dct=1 / cqm=0 / deadzone=21,11 / fast_pskip=1 / chroma_qp_offset=-3 / threads=6 / lookahead_threads=1 / sliced_threads=0 / nr=0 / decimate=0 / interlaced=0 / bluray_compat=0 / constrained_intra=0 / bframes=8 / b_pyramid=2 / b_adapt=2 / b_bias=0 / direct=3 / weightb=1 / open_gop=0 / weightp=2 / keyint=250 / keyint_min=25 / scenecut=40 / intra_refresh=0 / rc_lookahead=40 / rc=2pass / mbtree=1 / bitrate=1940 / ratetol=1.0 / qcomp=0.60 / qpmin=0 / qpmax=69 / qpstep=4 / cplxblur=20.0 / qblur=0.5 / ip_ratio=1.40 / aq=1:1.00
Default : Да
Forced : Нет
Аудио
Идентификатор : 2
Формат : AC-3
Формат/Информация : Audio Coding 3
Расширение режима : CM (complete main)
Параметр Endianness формата : Big
Идентификатор кодека : A_AC3
Продолжительность : 6 м. 54 с.
Вид битрейта : Постоянный
Битрейт : 192 Кбит/сек
Каналы : 2 канала
Расположение каналов : Front: L R
Частота : 48,0 КГц
Битовая глубина : 16 бит
Метод сжатия : С потерями
Размер потока : 9,48 Мбайт (9%)
Заголовок : - = Rip by tahiy = -
Язык : Russian
Default : Да
Forced : Нет

Скриншоты


[Цитировать]



Показать сообщения:    

Текущее время: 04-Дек 19:15

Часовой пояс: UTC + 3


Вы не можете начинать темы
Вы не можете отвечать на сообщения
Вы не можете редактировать свои сообщения
Вы не можете удалять свои сообщения
Вы не можете голосовать в опросах
Вы не можете прикреплять файлы к сообщениям
Вы не можете скачивать файлы

!ВНИМАНИЕ!
Сайт не предоставляет электронные версии произведений, а занимается лишь коллекционированием и каталогизацией ссылок, присылаемых и публикуемых на форуме нашими читателями. Если вы являетесь правообладателем какого-либо представленного материала и не желаете, чтобы ссылка на него находилась в нашем каталоге, свяжитесь с нами, и мы незамедлительно удалим ее. Файлы для обмена на трекере предоставлены пользователями сайта, и администрация не несет ответственности за их содержание. Просьба не заливать файлы, защищенные авторскими правами, а также файлы нелегального содержания!