[ Сегодня идет свободное скачивание без начисления Download ]


Статистика раздачи
Нет
 
   
 
Top  
 
 
Как заниматься любовью по-английски Информация о фильме
Название: Как заниматься любовью по-английски
Оригинальное название: How to Make Love Like an Englishman
Год выхода: 2014
Жанр: мелодрама, комедия
Режиссер: Том Вон
В ролях: Пирс Броснан, Сальма Хайек, Джессика Альба, Малкольм МакДауэлл, Дункан Джойнер, Бен МакКензи, Меррин Данги, Фред Меламед, Иван Сергей, Ломбардо Бойяр
О фильме: Сюжет фильма вращается вокруг профессора Кембриджского университета, избравшего в качестве своего девиза изречение уайльдовского лорда Генри из «Портрета Дориана Грея»: «Единственный способ отделаться от искушения — уступить ему». Однажды профессор решает завязать с бесконечным потоком романов и завести семью с молодой американской подружкой — раз уж она внезапно от него забеременела. Однако он и не представлял, как сложится их семейная жизнь.

Выпущено: США / PalmStar Media, Southpaw Entertainment, Irish DreamTime
Продолжительность: 01:39:20
Озвучивание: Дублированное [официальное] - Чистый звук
Файл
Формат: MKV
Качество: WEB-DL 720p
Видео: 3937 kb/s, 1280x534
Аудио: Russian: AC3, 192 kb/s (2 ch) / English: AC3, 384 kb/s (6 ch)

MI

Format : Matroska
Format version : Version 4 / Version 2
File size : 3.20 GiB
Duration : 1h 39mn
Overall bit rate : 4 605 Kbps
Encoded date : UTC 2015-08-21 09:29:04
Writing application : mkvmerge v6.1.0 ('Old Devil') built on Mar 4 2013 09:10:42
Writing library : libebml v1.3.0 + libmatroska v1.4.0
Video
ID : 1
Format : AVC
Format/Info : Advanced Video Codec
Format profile : [email protected]
Format settings, CABAC : No
Format settings, ReFrames : 2 frames
Codec ID : V_MPEG4/ISO/AVC
Duration : 1h 39mn
Bit rate : 3 937 Kbps
Width : 1 280 pixels
Height : 534 pixels
Display aspect ratio : 2.40:1
Frame rate mode : Constant
Frame rate : 24.000 fps
Color space : YUV
Chroma subsampling : 4:2:0
Bit depth : 8 bits
Scan type : Progressive
Bits/(Pixel*Frame) : 0.240
Stream size : 2.73 GiB (86%)
Language : English
Default : Yes
Forced : No
Color range : Limited
Color primaries : BT.709
Transfer characteristics : BT.709
Matrix coefficients : BT.709
Audio #1
ID : 2
Format : AC-3
Format/Info : Audio Coding 3
Mode extension : CM (complete main)
Format settings, Endianness : Big
Codec ID : A_AC3
Duration : 1h 39mn
Bit rate mode : Constant
Bit rate : 192 Kbps
Channel(s) : 2 channels
Channel positions : Front: L R
Sampling rate : 48.0 KHz
Bit depth : 16 bits
Compression mode : Lossy
Stream size : 136 MiB (4%)
Language : Russian
Default : Yes
Forced : No
Audio #2
ID : 3
Format : AC-3
Format/Info : Audio Coding 3
Mode extension : CM (complete main)
Format settings, Endianness : Big
Codec ID : A_AC3
Duration : 1h 39mn
Bit rate mode : Constant
Bit rate : 384 Kbps
Channel(s) : 6 channels
Channel positions : Front: L C R, Side: L R, LFE
Sampling rate : 48.0 KHz
Bit depth : 16 bits
Compression mode : Lossy
Stream size : 273 MiB (8%)
Language : English
Default : No
Forced : No
Menu
00:00:00.000 : en:Chapitre 1
00:10:36.000 : en:Chapitre 2
00:20:09.000 : en:Chapitre 3
00:30:29.000 : en:Chapitre 4
00:39:22.000 : en:Chapitre 5
00:50:45.000 : en:Chapitre 6
00:59:58.000 : en:Chapitre 7
01:10:50.000 : en:Chapitre 8
01:21:01.000 : en:Chapitre 9
01:29:57.000 : en:Chapitre 10

Скриншоты

[Цитировать]

Топик был перенесен из форума Новинки кинопроката в форум Мелодрама
Henkok



Показать сообщения:    

Текущее время: 05-Дек 23:45

Часовой пояс: UTC + 3


Вы не можете начинать темы
Вы не можете отвечать на сообщения
Вы не можете редактировать свои сообщения
Вы не можете удалять свои сообщения
Вы не можете голосовать в опросах
Вы не можете прикреплять файлы к сообщениям
Вы не можете скачивать файлы

!ВНИМАНИЕ!
Сайт не предоставляет электронные версии произведений, а занимается лишь коллекционированием и каталогизацией ссылок, присылаемых и публикуемых на форуме нашими читателями. Если вы являетесь правообладателем какого-либо представленного материала и не желаете, чтобы ссылка на него находилась в нашем каталоге, свяжитесь с нами, и мы незамедлительно удалим ее. Файлы для обмена на трекере предоставлены пользователями сайта, и администрация не несет ответственности за их содержание. Просьба не заливать файлы, защищенные авторскими правами, а также файлы нелегального содержания!