[ Сегодня идет свободное скачивание без начисления Download ]


Статистика раздачи
Нет
 
   
 
Top  
 
 
Информация о фильме
Название: Спаситель
Оригинальное название: Redeemer
Год выпуска: 2014
Жанр: Боевик, криминал
Режиссер: Эрнесто Диас Эспиноса
В ролях: Ноа Сеган, Марко Сарор, Лорето Аварена, Маурисио Диокарес, Борис Смирнов, Отилио Кастро
О фильме: Бывший наёмный убийца Никки Пардо заключил сделку с Богом. Теперь каждый его день будет начинаться с того, что он держит пистолет у своего виска и спускает курок. За эти дни Пардо ни разу не умер, и он расценивает это как знамение того, что ему предначертано продолжать охоту за людьми, на которых он раньше работал.

Выпущено: Чили, США, Moral Brothers Entertainment, XYZ Films
Продолжительность: 01:29:57
Перевод фильма: Enigma
Озвучено: Любительский одноголосый (Хихикающий доктор)
Работа со звуком: Sergei7721
Файл
Качество: HDRip (AVC)
Видео: MPEG-4 AVC, 1988 Кбит/с, 1024x576
Аудио: Русский, испанский (AC3, 6 ch, 448 Кбит/с)
Субтитры: Английские

MI

General
Unique ID : 210424836861592964830598096927135668436 (0x9E4E59749A1762DE8AE8FC9523E498D4)
Complete name : C:Redeemer.2014.xixidok.HDRip.AVC.ExKinoRay.mkv
Format : Matroska
Format version : Version 4 / Version 2
File size : 1.81 GiB
Duration : 1h 29mn
Overall bit rate : 2 885 Kbps
Movie name : Redeemer 2014 from ExKinoRay
Encoded date : UTC 2015-08-16 16:54:13
Writing application : mkvmerge v6.6.0 ('The Edge Of The In Between') built on Dec 1 2013 17:55:00
Writing library : libebml v1.3.0 + libmatroska v1.4.1
Video
ID : 1
Format : AVC
Format/Info : Advanced Video Codec
Format profile : High@L4.1
Format settings, CABAC : Yes
Format settings, ReFrames : 10 frames
Codec ID : V_MPEG4/ISO/AVC
Duration : 1h 29mn
Bit rate : 1 988 Kbps
Width : 1 024 pixels
Height : 576 pixels
Display aspect ratio : 16:9
Frame rate mode : Constant
Frame rate : 23.976 fps
Color space : YUV
Chroma subsampling : 4:2:0
Bit depth : 8 bits
Scan type : Progressive
Bits/(Pixel*Frame) : 0.141
Stream size : 1.21 GiB (67%)
Title : Enigma
Writing library : x264 core 133 r2334 a3ac64b
Encoding settings : cabac=1 / ref=10 / deblock=1:-2:-2 / analyse=0x3:0x113 / me=umh / subme=10 / psy=1 / psy_rd=1.05:0.15 / mixed_ref=1 / me_range=32 / chroma_me=1 / trellis=2 / 8x8dct=1 / cqm=0 / deadzone=21,11 / fast_pskip=0 / chroma_qp_offset=-3 / threads=12 / lookahead_threads=2 / sliced_threads=0 / nr=0 / decimate=0 / interlaced=0 / bluray_compat=0 / constrained_intra=0 / bframes=9 / b_pyramid=2 / b_adapt=2 / b_bias=0 / direct=3 / weightb=1 / open_gop=0 / weightp=2 / keyint=240 / keyint_min=23 / scenecut=40 / intra_refresh=0 / rc_lookahead=40 / rc=2pass / mbtree=0 / bitrate=1988 / ratetol=1.0 / qcomp=0.65 / qpmin=0 / qpmax=51 / qpstep=4 / cplxblur=20.0 / qblur=0.5 / vbv_maxrate=50000 / vbv_bufsize=62500 / nal_hrd=none / ip_ratio=1.40 / pb_ratio=1.30 / aq=1:1.00
Default : Yes
Forced : No
Color primaries : BT.709
Transfer characteristics : BT.709
Matrix coefficients : BT.709
Audio #1
ID : 2
Format : AC-3
Format/Info : Audio Coding 3
Mode extension : CM (complete main)
Format settings, Endianness : Big
Codec ID : A_AC3
Duration : 1h 29mn
Bit rate mode : Constant
Bit rate : 448 Kbps
Channel(s) : 6 channels
Channel positions : Front: L C R, Side: L R, LFE
Sampling rate : 48.0 KHz
Bit depth : 16 bits
Compression mode : Lossy
Stream size : 288 MiB (16%)
Title : xixidok
Language : Russian
Default : No
Forced : No
Audio #2
ID : 3
Format : AC-3
Format/Info : Audio Coding 3
Mode extension : CM (complete main)
Format settings, Endianness : Big
Codec ID : A_AC3
Duration : 1h 29mn
Bit rate mode : Constant
Bit rate : 448 Kbps
Channel(s) : 6 channels
Channel positions : Front: L C R, Side: L R, LFE
Sampling rate : 48.0 KHz
Bit depth : 16 bits
Compression mode : Lossy
Stream size : 288 MiB (16%)
Language : Spanish
Default : No
Forced : No
Text #1
ID : 4
Format : UTF-8
Codec ID : S_TEXT/UTF8
Codec ID/Info : UTF-8 Plain Text
Title : on spanish only
Language : English
Default : No
Forced : No
Text #2
ID : 5
Format : UTF-8
Codec ID : S_TEXT/UTF8
Codec ID/Info : UTF-8 Plain Text
Title : SHD
Language : English
Default : No
Forced : No
Menu
00:00:00.000 : en:00:00:00.000
00:03:51.314 : en:00:03:51.314
00:06:15.542 : en:00:06:15.542
00:11:07.584 : en:00:11:07.584
00:14:32.789 : en:00:14:32.789
00:19:08.814 : en:00:19:08.814
00:22:27.179 : en:00:22:27.179
00:25:05.212 : en:00:25:05.212
00:30:21.653 : en:00:30:21.653
00:36:00.784 : en:00:36:00.784
00:41:57.473 : en:00:41:57.473
00:45:43.282 : en:00:45:43.282
00:51:33.424 : en:00:51:33.424
00:56:43.442 : en:00:56:43.442
01:00:58.029 : en:01:00:58.029
01:03:10.286 : en:01:03:10.286
01:07:50.149 : en:01:07:50.149
01:11:32.955 : en:01:11:32.955
01:14:13.532 : en:01:14:13.532
01:18:03.762 : en:01:18:03.762
01:25:01.513 : en:01:25:01.513

Релиз от:
Автор релиза:
Звук и озвучка от:

[Цитировать]



Показать сообщения:    

Текущее время: 10-Дек 21:37

Часовой пояс: UTC + 3


Вы не можете начинать темы
Вы не можете отвечать на сообщения
Вы не можете редактировать свои сообщения
Вы не можете удалять свои сообщения
Вы не можете голосовать в опросах
Вы не можете прикреплять файлы к сообщениям
Вы не можете скачивать файлы

!ВНИМАНИЕ!
Сайт не предоставляет электронные версии произведений, а занимается лишь коллекционированием и каталогизацией ссылок, присылаемых и публикуемых на форуме нашими читателями. Если вы являетесь правообладателем какого-либо представленного материала и не желаете, чтобы ссылка на него находилась в нашем каталоге, свяжитесь с нами, и мы незамедлительно удалим ее. Файлы для обмена на трекере предоставлены пользователями сайта, и администрация не несет ответственности за их содержание. Просьба не заливать файлы, защищенные авторскими правами, а также файлы нелегального содержания!