[ Сегодня идет свободное скачивание без начисления Download ]


Статистика раздачи
Нет
 
   
 
Top  
 
 

Информация о фильме
Название: Форсаж 7 [Расширенная версия]
Оригинальное название: Furious 7 [EXTENDED]
Год выхода: 2015
Жанр: Боевик, триллер, криминал
Режиссер: Джеймс Ван
В ролях: Вин Дизель, Пол Уокер, Джейсон Стэйтем, Мишель Родригес, Дуэйн Джонсон, Тайриз Гибсон, Лудакрис, Натали Эммануэль, Джордана Брюстер, Курт Рассел
О фильме: Они покорили Токио и Рио, Лос-Анджелес и Лондон. Но мир больше не играет по их правилам. Зной арабских пустынь, неприлично высокие небоскребы, миллионы долларов на колесах и очень, очень знаменитый злодей. Скорость не знает границ.

Выпущено: США / Universal Pictures, Dentsu, Fast 7 Productions
Продолжительность: 02:19:55
Перевод: Профессиональный (полное дублирование) [Лицензия]
Файл
Кодек: x264
Качество: BDRip-AVC
Видео: 720x300 (2,40:1), 23,976 fps, x264 ~ 1299 kbps avg, 0.251 bit/pixel
Аудио: 48,0 kHz, Audio Coding 3, 2 ch, ~192 kbps avg
Субтитры: Английские Отключаемые [UTF-8]

MI

Общее
Уникальный идентификатор : 244270204072483071875292397459683167396 (0xB7C4BAE4D9A99F6CAD0E63CDA1D04CA4)
Полное имя : D:ВидеоFurious.7.2015.BDRip-AVC 1.46 by Vovan366(ExKinoRay).mkv
Формат : Matroska
Версия формата : Version 4 / Version 2
Размер файла : 1,46 Гбайт
Продолжительность : 2 ч. 19 м.
Общий поток : 1491 Кбит/сек
Название фильма : Furious.7.2015.BDRip-AVC by Vovan366(ExKinoRay)
Дата кодирования : UTC 2015-08-01 03:05:09
Программа кодирования : mkvmerge v8.2.0 ('World of Adventure') 64bit
Библиотека кодирования : libebml v1.3.1 + libmatroska v1.4.2
DURATION : 02:19:54.848000000
NUMBER_OF_FRAMES : 262339
NUMBER_OF_BYTES : 201476352
_STATISTICS_WRITING_APP : mkvmerge v8.2.0 ('World of Adventure') 64bit
_STATISTICS_WRITING_DATE_UTC : 2015-08-01 03:05:09
_STATISTICS_TAGS : BPS DURATION NUMBER_OF_FRAMES NUMBER_OF_BYTES
Видео
Идентификатор : 1
Формат : AVC
Формат/Информация : Advanced Video Codec
Профиль формата : High@L4.1
Параметр CABAC формата : Да
Параметр ReFrames формата : 9 кадров
Идентификатор кодека : V_MPEG4/ISO/AVC
Продолжительность : 2 ч. 19 м.
Битрейт : 1299 Кбит/сек
Ширина : 720 пикселей
Высота : 300 пикселей
Соотношение сторон : 2,40:1
Режим частоты кадров : Постоянный
Частота кадров : 23,976 кадра/сек
Цветовое пространство : YUV
Субдискретизация насыщенности : 4:2:0
Битовая глубина : 8 бит
Тип развёртки : Прогрессивная
Бит/(Пиксели*Кадры) : 0.251
Размер потока : 1,24 Гбайт (85%)
Заголовок : Furious.7.2015.BDRip-AVC by Vovan366(ExKinoRay)
Библиотека кодирования : x264 core 130 r2273 b3065e6
Настройки программы : cabac=1 / ref=9 / deblock=1:-2:-2 / analyse=0x3:0x113 / me=umh / subme=10 / psy=1 / psy_rd=1.00:0.15 / mixed_ref=1 / me_range=32 / chroma_me=1 / trellis=2 / 8x8dct=1 / cqm=0 / deadzone=21,11 / fast_pskip=1 / chroma_qp_offset=-3 / threads=6 / lookahead_threads=1 / sliced_threads=0 / nr=0 / decimate=0 / interlaced=0 / bluray_compat=0 / constrained_intra=0 / bframes=9 / b_pyramid=2 / b_adapt=2 / b_bias=0 / direct=3 / weightb=1 / open_gop=0 / weightp=2 / keyint=240 / keyint_min=23 / scenecut=40 / intra_refresh=0 / rc=2pass / mbtree=0 / bitrate=1299 / ratetol=1.0 / qcomp=0.60 / qpmin=0 / qpmax=69 / qpstep=4 / cplxblur=20.0 / qblur=0.5 / ip_ratio=1.40 / pb_ratio=1.30 / aq=1:1.00
Default : Да
Forced : Нет
Аудио
Идентификатор : 2
Формат : AC-3
Формат/Информация : Audio Coding 3
Расширение режима : CM (complete main)
Параметр Endianness формата : Big
Идентификатор кодека : A_AC3
Продолжительность : 2 ч. 19 м.
Вид битрейта : Постоянный
Битрейт : 192 Кбит/сек
Каналы : 2 канала
Расположение каналов : Front: L R
Частота : 48,0 КГц
Битовая глубина : 16 бит
Метод сжатия : С потерями
Размер потока : 192 Мбайт (13%)
Язык : Russian
Default : Да
Forced : Нет
Текст
Идентификатор : 3
Формат : UTF-8
Идентификатор кодека : S_TEXT/UTF8
Идентификатор кодека/Информация : UTF-8 Plain Text
Язык : English
Default : Нет
Forced : Нет
Меню
00:00:00.000 : en:00:00:00.000
00:04:39.946 : en:00:04:39.946
00:11:29.480 : en:00:11:29.480
00:16:39.289 : en:00:16:39.289
00:25:54.052 : en:00:25:54.052
00:33:43.896 : en:00:33:43.896
00:41:44.585 : en:00:41:44.585
00:46:41.006 : en:00:46:41.006
00:52:10.710 : en:00:52:10.710
01:02:31.414 : en:01:02:31.414
01:06:16.680 : en:01:06:16.680
01:14:16.868 : en:01:14:16.868
01:22:34.032 : en:01:22:34.032
01:33:21.137 : en:01:33:21.137
01:38:27.484 : en:01:38:27.484
01:45:40.083 : en:01:45:40.083
01:53:54.452 : en:01:53:54.452
01:58:31.062 : en:01:58:31.062
02:06:19.863 : en:02:06:19.863
02:11:31.174 : en:02:11:31.174

Скриншоты



Релиз от:
Rip by: Vovan366

[Цитировать]



Показать сообщения:    

Текущее время: 10-Дек 08:02

Часовой пояс: UTC + 3


Вы не можете начинать темы
Вы не можете отвечать на сообщения
Вы не можете редактировать свои сообщения
Вы не можете удалять свои сообщения
Вы не можете голосовать в опросах
Вы не можете прикреплять файлы к сообщениям
Вы не можете скачивать файлы

!ВНИМАНИЕ!
Сайт не предоставляет электронные версии произведений, а занимается лишь коллекционированием и каталогизацией ссылок, присылаемых и публикуемых на форуме нашими читателями. Если вы являетесь правообладателем какого-либо представленного материала и не желаете, чтобы ссылка на него находилась в нашем каталоге, свяжитесь с нами, и мы незамедлительно удалим ее. Файлы для обмена на трекере предоставлены пользователями сайта, и администрация не несет ответственности за их содержание. Просьба не заливать файлы, защищенные авторскими правами, а также файлы нелегального содержания!