[ Сегодня идет свободное скачивание без начисления Download ]


Статистика раздачи
Нет
 
   
 
Top  
 
 
Монстры 2: Тёмный континент
Monsters: Dark Continent
«Fear has evolved»

Страна: Великобритания
Жанр: фантастика, триллер, драма, военный
Год выпуска: 2014
Продолжительность: 01:59:03
Перевод: Профессиональный (многоголосый, закадровый) [Лицензия / iTunes]
Cубтитры: нет
Оригинальная аудиодорожка: Английский
Режиссер: Том Грин / Tom Green
В ролях: Джонни Харрис, Сэм Кили, Джозеф Демпси, Кайл Соллер, Николас Пиннок, Паркер Сойерс, Филип Ардитти, София Бутелла, Михаэла Коэл, Hassan Sha'er, Уриель Эмиль, Джесси Надь
Описание:
Прошло 7 лет после событий первой части, и «зараженные зоны» распространились по всему миру. Теперь человечество борется за выживание. Эмилио, молодой врач, присоединяется к спасательной операции по поиску пропавших в самом центре территории монстров. Ужас того, о чем он узнает во время экспедиции, не поддается описанию...

Релиз:
Автор рипа: Stalker oK
Сэмпл
Качество видео: BDRip-AVC [Blu-ray Remux 1080p]
Формат видео: MKV
Видео кодек: AVC
Аудио кодек: AC3
Видео: 1725 Кбит/сек, 1032x430 (2.40:1), 23,976 кадр/сек, AVC
Аудио №1: русский, 384 Кбит/сек, 48 КГц, 16 бит, 5.1, AC3
Аудио №2: английский, 448 Кбит/сек, 48 КГц, 16 бит, 5.1, AC3
Навигация по главам: есть

MediaInfo

General
Unique ID : 238717973033875007571890058430173494987 (0xB39768C4CCE9DEFE8F1279D315413ECB)
Complete name : M:РипыМонстры 2Monsters.Dark.Continent.2014.BDRip-AVC.MVO.2.18Gb...stalkerok.new-team.mkv
Format : Matroska
File size : 2.13 GiB
Duration : 1h 59mn
Overall bit rate : 2 558 Kbps
Movie name : Monsters: Dark Continent (2014) (New-Team) (Rip by Stalker oK)
Encoded date : UTC 2015-07-24 12:16:52
Writing application : mkvmerge v7.9.0 ('Birds') 64bit
Writing library : libebml v1.3.1 + libmatroska v1.4.2
Video
ID : 1
Format : AVC
Format/Info : Advanced Video Codec
Format profile : High@L4.1
Format settings, CABAC : Yes
Format settings, ReFrames : 12 frames
Codec ID : V_MPEG4/ISO/AVC
Duration : 1h 59mn
Bit rate : 1 725 Kbps
Width : 1 032 pixels
Height : 430 pixels
Display aspect ratio : 2.40:1
Frame rate : 23.976 fps
Color space : YUV
Chroma subsampling : 4:2:0
Bit depth : 8 bits
Scan type : Progressive
Bits/(Pixel*Frame) : 0.162
Stream size : 1.39 GiB (65%)
Title : Monsters: Dark Continent (2014) (New-Team) (Rip by Stalker oK)
Writing library : x264 core 146 r2538kMod 121396c
Encoding settings : cabac=1 / ref=12 / deblock=1:-3:-2 / analyse=0x3:0x133 / me=umh / subme=11 / psy=1 / fade_compensate=0.00 / psy_rd=1.00:0.10 / mixed_ref=1 / me_range=48 / chroma_me=1 / trellis=2 / 8x8dct=1 / cqm=0 / deadzone=21,11 / fast_pskip=0 / chroma_qp_offset=-3 / threads=12 / lookahead_threads=3 / sliced_threads=0 / nr=0 / decimate=0 / interlaced=0 / bluray_compat=0 / constrained_intra=0 / fgo=0 / bframes=14 / b_pyramid=2 / b_adapt=2 / b_bias=0 / direct=3 / weightb=1 / open_gop=0 / weightp=2 / keyint=240 / keyint_min=23 / scenecut=40 / intra_refresh=0 / rc_lookahead=60 / rc=2pass / mbtree=0 / bitrate=1725 / ratetol=1.0 / qcomp=0.70 / qpmin=0 / qpmax=69 / qpstep=4 / cplxblur=20.0 / qblur=0.5 / vbv_maxrate=50000 / vbv_bufsize=62500 / nal_hrd=none / filler=0 / ip_ratio=1.40 / pb_ratio=1.30 / aq=3:0.80 / zones=163995,171262,q=35
Audio #1
ID : 2
Format : AC-3
Format/Info : Audio Coding 3
Mode extension : CM (complete main)
Codec ID : A_AC3
Duration : 1h 59mn
Bit rate mode : Constant
Bit rate : 384 Kbps
Channel(s) : 6 channels
Channel positions : Front: L C R, Side: L R, LFE
Sampling rate : 48.0 KHz
Bit depth : 16 bits
Compression mode : Lossy
Stream size : 327 MiB (15%)
Language : Russian
Audio #2
ID : 3
Format : AC-3
Format/Info : Audio Coding 3
Mode extension : CM (complete main)
Codec ID : A_AC3
Duration : 1h 59mn
Bit rate mode : Constant
Bit rate : 448 Kbps
Channel(s) : 6 channels
Channel positions : Front: L C R, Side: L R, LFE
Sampling rate : 48.0 KHz
Bit depth : 16 bits
Compression mode : Lossy
Stream size : 381 MiB (18%)
Language : English
Menu
00:00:00.000 : en:Chapter 01
00:06:16.250 : en:Chapter 02
00:12:56.692 : en:Chapter 03
00:16:26.735 : en:Chapter 04
00:22:55.332 : en:Chapter 05
00:27:50.418 : en:Chapter 06
00:33:48.026 : en:Chapter 07
00:40:37.309 : en:Chapter 08
00:48:21.440 : en:Chapter 09
00:56:13.453 : en:Chapter 10
01:04:29.490 : en:Chapter 11
01:11:31.662 : en:Chapter 12
01:17:59.257 : en:Chapter 13
01:25:20.156 : en:Chapter 14
01:30:21.416 : en:Chapter 15
01:38:09.383 : en:Chapter 16
01:45:51.678 : en:Chapter 17
01:54:05.713 : en:Chapter 18

[Цитировать]



Показать сообщения:    

Текущее время: 10-Дек 08:00

Часовой пояс: UTC + 3


Вы не можете начинать темы
Вы не можете отвечать на сообщения
Вы не можете редактировать свои сообщения
Вы не можете удалять свои сообщения
Вы не можете голосовать в опросах
Вы не можете прикреплять файлы к сообщениям
Вы не можете скачивать файлы

!ВНИМАНИЕ!
Сайт не предоставляет электронные версии произведений, а занимается лишь коллекционированием и каталогизацией ссылок, присылаемых и публикуемых на форуме нашими читателями. Если вы являетесь правообладателем какого-либо представленного материала и не желаете, чтобы ссылка на него находилась в нашем каталоге, свяжитесь с нами, и мы незамедлительно удалим ее. Файлы для обмена на трекере предоставлены пользователями сайта, и администрация не несет ответственности за их содержание. Просьба не заливать файлы, защищенные авторскими правами, а также файлы нелегального содержания!