[ Сегодня идет свободное скачивание без начисления Download ]


Статистика раздачи
Нет
 
   
 
Top  
 
 
-- Информация о фильме
Название: 6 способов умереть
Оригинальное название: 6 Ways to Sundown
Год выпуска: 2015
Жанр: боевик, триллер, криминал
Режиссер: Надим Сума
В ролях: Винни Джонс, Майкл Рене Уолтон, Вивика А. Фокс, Том Сайзмор, Бай Лин, Доминик Суэйн, Melissa Mars, Питер Добсон, Крис Джай Алекс, Хосе Росете
О фильме:
Джон Доу человек-загадка. Его личность и история неизвестны. Его цель уничтожить наркодиллера Сонни Гарсия. Но прежде, чем он сделает это, он хочет, чтобы Сонни почувствовал все, что он чувствовал, выстрадал все, что он страдал и потерял все, что он потерял. Джон Доу нанимает 6 преступников с индивидуальными способностями, для выполнения своего плана. Джон хочет 6 вещей, взятых от Сонни: его свободу, его любовь, его репутацию, его самое ценное достояние, деньги и, наконец его жизнь. Жизнь Сонни быстро и эффективно превратилась в сущий ад. Его банковский счет уничтожен. Его жена исчезает. Его преданность ставится под сомнение. Но это только начало.

Выпущено: США / Formula Features
Продолжительность: 01:43:31
Озвучивание: Любительское (двухголосое) [Savetig Studios]
Перевод: Enigma
Файл
Формат: MKV
Качество: WEB-DLRip-AVC
Видео: ~800 kb/s, 984x412
Аудио: AC3, 192 kb/s (2 ch)
Субтитры: Нет--

M/I

General
Unique ID : 73355717858443309090848452741379701560 (0x372FCC1FE31E3536C30FA91EDDECBB38)
Complete name : F:6 способов умереть.2015.L2.WEB-DLRIP_AVC.[-=DoMiNo=-].mkv
Format : Matroska
Format version : Version 4 / Version 2
File size : 755 MiB
Duration : 1h 43mn
Overall bit rate : 1 019 Kbps
Writing application : XviD4PSP 7.0.163
Writing library : Lavf56.25.101
ENCODING_INFO : MATROSKA,WEBM > MKV / H264 > X264 CRF 19,0 Custom / AC3 > COPY
Video
ID : 1
Format : AVC
Format/Info : Advanced Video Codec
Format profile : High@L4.1
Format settings, CABAC : Yes
Format settings, ReFrames : 12 frames
Codec ID : V_MPEG4/ISO/AVC
Duration : 1h 43mn
Bit rate : 807 Kbps
Width : 984 pixels
Height : 412 pixels
Display aspect ratio : 2.40:1
Frame rate mode : Constant
Frame rate : 23.976 fps
Color space : YUV
Chroma subsampling : 4:2:0
Bit depth : 8 bits
Scan type : Progressive
Bits/(Pixel*Frame) : 0.083
Stream size : 598 MiB (79%)
Writing library : x264 core 148 r2579M 73ae2d1
Encoding settings : cabac=1 / ref=12 / deblock=1:-3:-3 / analyse=0x3:0x133 / me=umh / subme=10 / psy=1 / psy_rd=1,00:0,10 / mixed_ref=1 / me_range=32 / chroma_me=1 / trellis=2 / 8x8dct=1 / cqm=0 / deadzone=21,11 / fast_pskip=0 / chroma_qp_offset=-3 / threads=12 / lookahead_threads=3 / sliced_threads=0 / nr=0 / decimate=1 / interlaced=0 / bluray_compat=0 / constrained_intra=0 / bframes=10 / b_pyramid=2 / b_adapt=2 / b_bias=0 / direct=1 / weightb=1 / open_gop=0 / weightp=2 / keyint=230 / keyint_min=23 / scenecut=40 / intra_refresh=0 / rc=crf / mbtree=0 / crf=19,0 / qcomp=0,60 / qpmin=19 / qpmax=69 / qpstep=4 / ip_ratio=1,40 / pb_ratio=1,30 / aq=1:1,00
Language : English
Default : Yes
Forced : No
Color range : Limited
Color primaries : BT.709
Transfer characteristics : BT.709
Matrix coefficients : BT.709
Audio
ID : 2
Format : AC-3
Format/Info : Audio Coding 3
Mode extension : CM (complete main)
Format settings, Endianness : Big
Codec ID : A_AC3
Duration : 1h 43mn
Bit rate mode : Constant
Bit rate : 192 Kbps
Channel(s) : 2 channels
Channel positions : Front: L R
Sampling rate : 48.0 KHz
Bit depth : 32 bits
Compression mode : Lossy
Stream size : 142 MiB (19%)
Language : Russian
Default : Yes
Forced : No
Menu
00:00:00.000 : :Chapter 1
00:10:11.000 : :Chapter 2
00:19:31.000 : :Chapter 3
00:28:01.000 : :Chapter 4
00:35:14.000 : :Chapter 5
00:45:32.000 : :Chapter 6
01:00:18.000 : :Chapter 7
01:11:37.000 : :Chapter 8
01:20:27.000 : :Chapter 9
01:28:27.000 : :Chapter 10
01:40:40.000 : :Chapter 11
-- --

[Цитировать]



Показать сообщения:    

Текущее время: 09-Дек 14:37

Часовой пояс: UTC + 3


Вы не можете начинать темы
Вы не можете отвечать на сообщения
Вы не можете редактировать свои сообщения
Вы не можете удалять свои сообщения
Вы не можете голосовать в опросах
Вы не можете прикреплять файлы к сообщениям
Вы не можете скачивать файлы

!ВНИМАНИЕ!
Сайт не предоставляет электронные версии произведений, а занимается лишь коллекционированием и каталогизацией ссылок, присылаемых и публикуемых на форуме нашими читателями. Если вы являетесь правообладателем какого-либо представленного материала и не желаете, чтобы ссылка на него находилась в нашем каталоге, свяжитесь с нами, и мы незамедлительно удалим ее. Файлы для обмена на трекере предоставлены пользователями сайта, и администрация не несет ответственности за их содержание. Просьба не заливать файлы, защищенные авторскими правами, а также файлы нелегального содержания!