[ Сегодня идет свободное скачивание без начисления Download ]


Статистика раздачи
Нет
 
   
 
 
 
Мастер интернета
Год выпуска: 2015
Производитель: Академия Компьютерных Знаний
Сайт производителя: http://komp-uroki.ru/
Автор: Михаил Арсланин
Продолжительность: 1 урок 2-15 мин
Тип раздаваемого материала: Мультимедийный диск
Язык: Русский
Описание: Эта программа обучения заставит каждого человека почувствовать себя просто волшебником, которому открылись тайны мира и Вселенной. Ведь все возможности использования компьютера заключаются именно в умении пользоваться интернетом. Кто умеет им пользоваться, тот владеет миром!
Программа обучения не сложная и написана доступным для любого возраста языком. Более того, она всегда будет при вас. Если что-то не понятно или забыто вами – всегда можно подсмотреть, напомнить, включив DVD диск. Постигайте просторы Интернета вместе с Академией Компьютерных Знаний!
Формат видео: MP4

Содержание

БЛОК 1.УСТРОЙСТВО ИНТЕРНЕТА
БЛОК 2.ИНТЕРНЕТ БРАУЗЕР
БЛОК 3.ПОИСК ИНФОРМАЦИИ В ИНТЕРНЕТЕ
БЛОК 4.ЭЛЕКТРОННАЯ ПОЧТА
БЛОК 5.СОЦИАЛЬНЫЕ СЕТИ
БЛОК 6.ПРОГРАММЫ ДЛЯ ОБЩЕНИЯ В СЕТИ ИНТЕРНЕТ
БЛОК 7.СКАЧИВАНИЕ ФАЙЛОВ
БЛОК 8. МУЗЫКА В ИНТЕРНЕТЕ
БЛОК 9.ВИДЕО В ИНТЕРНЕТЕ
БЛОК 10. БЕСПЛАТНЫЕ ИГРЫ В ИНТЕРНЕТЕ
БЛОК 11. РРАЗВЛЕКАТЕЛЬНЫЕ И ПОЛЕЗНЫЕ СЕРВИСЫ В ИНТЕРНЕТЕ
БЛОК 12.ОБУЧАЮЩИЕ ИНТЕРНЕТ СЕРВИСЫ
БЛОК 13. НОВОСТНЫЕ И ИНФОРМАЦИОННЫЕ СЕРВИСЫ
БЛОК 14.ПУТЕШЕСТВИЯ
БЛОК 15.ИНТЕРНЕТ БАНКИНГ
БЛОК 16.СЕРВИСЫ ЯНДЕКС
БЛОК 17. СЕРВИСЫ ГУГЛ
БЛОК 18. СЕРВИСЫ MAIL
БЛОК 19. ПОИСК РАБОТЫ/ФРИЛАНС
БЛОК 20.ПОКУПКИ В СЕТИ ИНТЕРНЕТ
БЛОК 21. КНИГИ В ИНТЕРНЕТ
БЛОК 22.БЛОГ
БЛОК 23.БЕЗОПАСНОСТЬ В СЕТИ ИНТЕРНЕТ
БОНУС 1.КАК УСКОРИТЬ ИНТЕРНЕТ СОЕДИНЕНИЕ
БОНУС 2.ВИДЕОЧАТЫ В ИНТЕРЕТЕ
БОНУС 3.СЕРВИС МОЯАПТЕЧКА.РФ
БОНУС 4.РЕДАКТИРОВАНИЕ ФОТОГРАФИЙ В ИНТЕРНЕТЕ

Видео

Общее
Полное имя : F:\rs\video\0-1.mp4
Формат : MPEG-4
Профиль формата : Base Media
Идентификатор кодека : isom
Размер файла : 15,9 Мбайт
Продолжительность : 6 м. 41 с.
Режим общего битрейта : Переменный
Общий поток : 331 Кбит/сек
Дата кодирования : UTC 2015-06-06 08:45:35
Дата пометки : UTC 2015-06-06 08:45:35
Программа кодирования : FormatFactory : www.pcfreetime.com
Видео
Идентификатор : 1
Формат : AVC
Формат/Информация : Advanced Video Codec
Профиль формата : [email protected]
Параметр CABAC формата : Нет
Параметр ReFrames формата : 1 кадр
Идентификатор кодека : avc1
Идентификатор кодека/Информация : Advanced Video Coding
Продолжительность : 6 м. 41 с.
Битрейт : 256 Кбит/сек
Максимальный битрейт : 9529 Кбит/сек
Ширина : 1280 пикселей
Высота : 720 пикселей
Соотношение сторон : 16:9
Режим частоты кадров : Постоянный
Частота кадров : 12,000 кадров/сек
Цветовое пространство : YUV
Субдискретизация насыщенности : 4:2:0
Битовая глубина : 8 бит
Тип развёртки : Прогрессивная
Бит/(Пиксели*Кадры) : 0.023
Размер потока : 11,7 Мбайт (74%)
Библиотека кодирования : x264 core 116 r2019 9cc407d
Дата кодирования : UTC 2015-06-06 08:45:35
Дата пометки : UTC 2015-06-06 08:45:37

Аудио

Идентификатор : 2
Формат : AAC
Формат/Информация : Advanced Audio Codec
Профиль формата : LC
Идентификатор кодека : 40
Продолжительность : 6 м. 41 с.
Вид битрейта : Переменный
Битрейт : 86,1 Кбит/сек
Максимальный битрейт : 146 Кбит/сек
Каналы : 2 канала
Расположение каналов : Front: L R
Частота : 22,05 КГц
Метод сжатия : С потерями
Размер потока : 4,12 Мбайт (26%)
Дата кодирования : UTC 2015-06-06 08:45:37
Дата пометки : UTC 2015-06-06 08:45:37

Скриншоты

[Цитировать]



Показать сообщения:    

Текущее время: 06-Дек 03:55

Часовой пояс: UTC + 3


Вы не можете начинать темы
Вы не можете отвечать на сообщения
Вы не можете редактировать свои сообщения
Вы не можете удалять свои сообщения
Вы не можете голосовать в опросах
Вы не можете прикреплять файлы к сообщениям
Вы не можете скачивать файлы

!ВНИМАНИЕ!
Сайт не предоставляет электронные версии произведений, а занимается лишь коллекционированием и каталогизацией ссылок, присылаемых и публикуемых на форуме нашими читателями. Если вы являетесь правообладателем какого-либо представленного материала и не желаете, чтобы ссылка на него находилась в нашем каталоге, свяжитесь с нами, и мы незамедлительно удалим ее. Файлы для обмена на трекере предоставлены пользователями сайта, и администрация не несет ответственности за их содержание. Просьба не заливать файлы, защищенные авторскими правами, а также файлы нелегального содержания!