[ Сегодня идет свободное скачивание без начисления Download ]


Статистика раздачи
Нет
 
   
 
Top  
 
 
Школа современных технологий | Среда знаний. CSS-препроцессор LESS (2015) PCRec [H.264]- Автор (режиссер): Дмитрий Лаврик
Жанр: Верстка, CSS-препроцессор LESS
Доп. материалы: Есть
Описание:
Если ты уже хорошо знаешь HTML и CSS, а теперь хочешь тратить меньше времени на написание CSS-кода и освоить препроцессор CSS — LESS. Тогда приходи к нам на семинар! Ведь в обычном CSS нет ни функций, ни переменных..., ни множества других преимуществ, которые есть у LESS! Конечно, ты можешь изучить эту тему сам, но: Сначала ты прочтёшь кучу мануалов. Вскипятишь себе мозг. Тема реально сложная! И решишь, что ну его нафиг... А преподаватель уже готов объяснить всё прямо сейчас.
Продолжительность: 02:28:12
Качество видео: PCRec
Видео: AVC/H.264, 1280x1024, ~339-413 kbps
Аудио: AAC, 2 ch, 126 kbps, VBR

Содержание семинара

Какими преимуществами обладает LESS
Как правильно его подключать
Что делать с переменными и функциями
Как использовать вложенные конструкции
И многое другое.

Mediainfo

Общее
Полное имя                               : C:\[Школа современных технологий] Среда знаний. CSS-препроцессор LESS - 2015\2.mp4
Формат                                   : MPEG-4
Профиль формата                          : Base Media / Version 2
Идентификатор кодека                     : mp42
Размер файла                             : 107 Мбайт
Продолжительность                        : 32 м.
Режим общего битрейта                    : Переменный
Общий поток                              : 467 Кбит/сек
Название фильма                          : 1.1-1.2
Дата кодирования                         : UTC 2015-02-09 07:49:49
Дата пометки                             : UTC 2015-02-09 07:49:49
Видео
Идентификатор                            : 1
Формат                                   : AVC
Формат/Информация                        : Advanced Video Codec
Профиль формата                          : Baseline@L3.2
Параметр CABAC формата                   : Нет
Параметр ReFrames формата                : 3 кадра
Идентификатор кодека                     : avc1
Идентификатор кодека/Информация          : Advanced Video Coding
Продолжительность                        : 32 м.
Битрейт                                  : 339 Кбит/сек
Ширина                                   : 1280 пикселей
Высота                                   : 1024 пикселя
Соотношение сторон                       : 5:4
Режим частоты кадров                     : Постоянный
Частота кадров                           : 30,000 кадров/сек
Стандарт вещания                         : NTSC
Цветовое пространство                    : YUV
Субдискретизация насыщенности            : 4:2:0
Битовая глубина                          : 8 бит
Тип развёртки                            : Прогрессивная
Бит/(Пиксели*Кадры)                      : 0.009
Размер потока                            : 77,8 Мбайт (73%)
Язык                                     : English
Дата кодирования                         : UTC 2015-02-09 07:49:51
Дата пометки                             : UTC 2015-02-09 07:49:51
Цветовой диапазон                        : Limited
Аудио
Идентификатор                            : 2
Формат                                   : AAC
Формат/Информация                        : Advanced Audio Codec
Профиль формата                          : LC
Идентификатор кодека                     : 40
Продолжительность                        : 32 м.
Вид битрейта                             : Переменный
Битрейт                                  : 126 Кбит/сек
Максимальный битрейт                     : 165 Кбит/сек
Каналы                                   : 2 канала
Расположение каналов                     : Front: L R
Частота                                  : 44,1 КГц
Метод сжатия                             : С потерями
Размер потока                            : 28,9 Мбайт (27%)
Язык                                     : English
Дата кодирования                         : UTC 2015-02-09 07:49:51
Дата пометки                             : UTC 2015-02-09 07:49:51
Общее
Полное имя                               : C:\[Школа современных технологий] Среда знаний. CSS-препроцессор LESS - 2015\3.mp4
Формат                                   : MPEG-4
Профиль формата                          : Base Media / Version 2
Идентификатор кодека                     : mp42
Размер файла                             : 354 Мбайт
Продолжительность                        : 1 ч. 31 м.
Режим общего битрейта                    : Переменный
Общий поток                              : 541 Кбит/сек
Дата кодирования                         : UTC 2015-02-05 07:03:17
Дата пометки                             : UTC 2015-02-05 07:03:17
Видео
Идентификатор                            : 1
Формат                                   : AVC
Формат/Информация                        : Advanced Video Codec
Профиль формата                          : Baseline@L3.2
Параметр CABAC формата                   : Нет
Параметр ReFrames формата                : 3 кадра
Идентификатор кодека                     : avc1
Идентификатор кодека/Информация          : Advanced Video Coding
Продолжительность                        : 1 ч. 31 м.
Битрейт                                  : 413 Кбит/сек
Ширина                                   : 1280 пикселей
Высота                                   : 1024 пикселя
Соотношение сторон                       : 5:4
Режим частоты кадров                     : Постоянный
Частота кадров                           : 30,000 кадров/сек
Стандарт вещания                         : NTSC
Цветовое пространство                    : YUV
Субдискретизация насыщенности            : 4:2:0
Битовая глубина                          : 8 бит
Тип развёртки                            : Прогрессивная
Бит/(Пиксели*Кадры)                      : 0.011
Размер потока                            : 270 Мбайт (76%)
Язык                                     : English
Дата кодирования                         : UTC 2015-02-05 07:03:19
Дата пометки                             : UTC 2015-02-05 07:03:19
Цветовой диапазон                        : Limited
Аудио
Идентификатор                            : 2
Формат                                   : AAC
Формат/Информация                        : Advanced Audio Codec
Профиль формата                          : LC
Идентификатор кодека                     : 40
Продолжительность                        : 1 ч. 31 м.
Вид битрейта                             : Переменный
Битрейт                                  : 126 Кбит/сек
Максимальный битрейт                     : 168 Кбит/сек
Каналы                                   : 2 канала
Расположение каналов                     : Front: L R
Частота                                  : 44,1 КГц
Метод сжатия                             : С потерями
Размер потока                            : 82,2 Мбайт (23%)
Язык                                     : English
Дата кодирования                         : UTC 2015-02-05 07:03:19
Дата пометки                             : UTC 2015-02-05 07:03:19
Скриншоты:

[Цитировать]



Показать сообщения:    

Текущее время: 08-Дек 17:07

Часовой пояс: UTC + 3


Вы не можете начинать темы
Вы не можете отвечать на сообщения
Вы не можете редактировать свои сообщения
Вы не можете удалять свои сообщения
Вы не можете голосовать в опросах
Вы не можете прикреплять файлы к сообщениям
Вы не можете скачивать файлы

!ВНИМАНИЕ!
Сайт не предоставляет электронные версии произведений, а занимается лишь коллекционированием и каталогизацией ссылок, присылаемых и публикуемых на форуме нашими читателями. Если вы являетесь правообладателем какого-либо представленного материала и не желаете, чтобы ссылка на него находилась в нашем каталоге, свяжитесь с нами, и мы незамедлительно удалим ее. Файлы для обмена на трекере предоставлены пользователями сайта, и администрация не несет ответственности за их содержание. Просьба не заливать файлы, защищенные авторскими правами, а также файлы нелегального содержания!