[ Сегодня идет свободное скачивание без начисления Download ]


Статистика раздачи
Скачал: [ 1 ]
 
   
 
Top  
 
 
Школа современных технологий | Среда знаний. JQuery PRO (2015) PCRec [H.264]- Автор (режиссер): Дмитрий Лаврик
Жанр: Вэб-программирование, JQuery
Доп. материалы: Есть
Описание:
Данный семинар будет интересен, если вы уже имеете опыт работы с JQuery и более-менее хорошо понимаете javascript, а теперь хотите изучить продвинутые приёмы и лучше понять данную библиотеку! Вы узнаете как jQuery устроена изнутри. Для этого мы вместе с вами напишем небольшую пародию, которая в полной мере передаст основные принципы организации jQuery. Также вы освоите тему написания собственных плагинов и сможете расширять jQuery по необходимости.
Внимание! Если у вас нет достаточного опыта работы с библиотекой jQuery, рекомендуем обратить внимание на базовый вебинар.
Продолжительность: 03:04:11
Качество видео: PCRec
Видео: AVC/H.264, 1280x1024, ~238-350 kbps
Аудио: AAC, 2 ch, 126 kbps, VBR

Содержание семинара

Изучаем внутреннее устройства
Пишем пародию на jQuery
Откуда берутся цепочки
return this;
bind & unbind
on - живое отслеживание DOM
Написание плагинов под jQuery
Множество практических примеров

Mediainfo

Общее
Полное имя                               : C:\[Школа современных технологий] Среда знаний. JQuery PRO - 2015\1.mp4
Формат                                   : MPEG-4
Профиль формата                          : Base Media / Version 2
Идентификатор кодека                     : mp42
Размер файла                             : 118 Мбайт
Продолжительность                        : 45 м.
Режим общего битрейта                    : Переменный
Общий поток                              : 367 Кбит/сек
Дата кодирования                         : UTC 2015-04-18 09:37:20
Дата пометки                             : UTC 2015-04-18 09:37:20
Видео
Идентификатор                            : 1
Формат                                   : AVC
Формат/Информация                        : Advanced Video Codec
Профиль формата                          : [email protected]
Параметр CABAC формата                   : Нет
Параметр ReFrames формата                : 3 кадра
Идентификатор кодека                     : avc1
Идентификатор кодека/Информация          : Advanced Video Coding
Продолжительность                        : 45 м.
Битрейт                                  : 238 Кбит/сек
Ширина                                   : 1280 пикселей
Высота                                   : 1024 пикселя
Соотношение сторон                       : 5:4
Режим частоты кадров                     : Постоянный
Частота кадров                           : 30,000 кадров/сек
Стандарт вещания                         : NTSC
Цветовое пространство                    : YUV
Субдискретизация насыщенности            : 4:2:0
Битовая глубина                          : 8 бит
Тип развёртки                            : Прогрессивная
Бит/(Пиксели*Кадры)                      : 0.006
Размер потока                            : 77,0 Мбайт (65%)
Язык                                     : English
Дата кодирования                         : UTC 2015-04-18 09:37:23
Дата пометки                             : UTC 2015-04-18 09:37:23
Цветовой диапазон                        : Limited
Аудио
Идентификатор                            : 2
Формат                                   : AAC
Формат/Информация                        : Advanced Audio Codec
Профиль формата                          : LC
Идентификатор кодека                     : 40
Продолжительность                        : 45 м.
Продолжительность оригинала              : 45 м.
Вид битрейта                             : Переменный
Битрейт                                  : 126 Кбит/сек
Максимальный битрейт                     : 230 Кбит/сек
Каналы                                   : 2 канала
Расположение каналов                     : Front: L R
Частота                                  : 44,1 КГц
Метод сжатия                             : С потерями
Размер потока                            : 40,6 Мбайт (34%)
Размер потока оригинала                  : 40,6 Мбайт (34%)
Язык                                     : English
Дата кодирования                         : UTC 2015-04-18 09:37:23
Дата пометки                             : UTC 2015-04-18 09:37:23
Общее
Полное имя                               : C:\[Школа современных технологий] Среда знаний. JQuery PRO - 2015\3.mp4
Формат                                   : MPEG-4
Профиль формата                          : Base Media / Version 2
Идентификатор кодека                     : mp42
Размер файла                             : 163 Мбайт
Продолжительность                        : 47 м.
Режим общего битрейта                    : Переменный
Общий поток                              : 478 Кбит/сек
Дата кодирования                         : UTC 2015-04-18 15:05:39
Дата пометки                             : UTC 2015-04-18 15:05:39
Видео
Идентификатор                            : 1
Формат                                   : AVC
Формат/Информация                        : Advanced Video Codec
Профиль формата                          : [email protected]
Параметр CABAC формата                   : Нет
Параметр ReFrames формата                : 3 кадра
Идентификатор кодека                     : avc1
Идентификатор кодека/Информация          : Advanced Video Coding
Продолжительность                        : 47 м.
Битрейт                                  : 350 Кбит/сек
Ширина                                   : 1280 пикселей
Высота                                   : 1024 пикселя
Соотношение сторон                       : 5:4
Режим частоты кадров                     : Постоянный
Частота кадров                           : 30,000 кадров/сек
Стандарт вещания                         : NTSC
Цветовое пространство                    : YUV
Субдискретизация насыщенности            : 4:2:0
Битовая глубина                          : 8 бит
Тип развёртки                            : Прогрессивная
Бит/(Пиксели*Кадры)                      : 0.009
Размер потока                            : 119 Мбайт (73%)
Язык                                     : English
Дата кодирования                         : UTC 2015-04-18 15:05:42
Дата пометки                             : UTC 2015-04-18 15:05:42
Цветовой диапазон                        : Limited
Аудио
Идентификатор                            : 2
Формат                                   : AAC
Формат/Информация                        : Advanced Audio Codec
Профиль формата                          : LC
Идентификатор кодека                     : 40
Продолжительность                        : 47 м.
Вид битрейта                             : Переменный
Битрейт                                  : 126 Кбит/сек
Максимальный битрейт                     : 170 Кбит/сек
Каналы                                   : 2 канала
Расположение каналов                     : Front: L R
Частота                                  : 44,1 КГц
Метод сжатия                             : С потерями
Размер потока                            : 42,9 Мбайт (26%)
Язык                                     : English
Дата кодирования                         : UTC 2015-04-18 15:05:42
Дата пометки                             : UTC 2015-04-18 15:05:42
Скриншоты:

[Цитировать]



Показать сообщения:    

Текущее время: 04-Дек 15:08

Часовой пояс: UTC + 3


Вы не можете начинать темы
Вы не можете отвечать на сообщения
Вы не можете редактировать свои сообщения
Вы не можете удалять свои сообщения
Вы не можете голосовать в опросах
Вы не можете прикреплять файлы к сообщениям
Вы не можете скачивать файлы

!ВНИМАНИЕ!
Сайт не предоставляет электронные версии произведений, а занимается лишь коллекционированием и каталогизацией ссылок, присылаемых и публикуемых на форуме нашими читателями. Если вы являетесь правообладателем какого-либо представленного материала и не желаете, чтобы ссылка на него находилась в нашем каталоге, свяжитесь с нами, и мы незамедлительно удалим ее. Файлы для обмена на трекере предоставлены пользователями сайта, и администрация не несет ответственности за их содержание. Просьба не заливать файлы, защищенные авторскими правами, а также файлы нелегального содержания!