[ Сегодня идет свободное скачивание без начисления Download ]


Статистика раздачи
Нет
 
   
 
Top  
 
 
Школа современных технологий | Среда знаний. SEO. Анализ конкурентов (2015) PCRec [H.264]- Автор (режиссер): Андрей Милаев
Жанр: SEO
Описание:
Узнайте все об эффективном анализе конкурентов
Этот вечер будет полезен:
Действующим или будущим предпринимателям;
Начинающим маркетологам и SEO-специалистам;
Владельцам сайтов;
Этим вечером мы обсудим:
Степень конкуренции поискового запроса;
Примерную оценку бюджета продвижения;
Что анализировать;
И для чего это нужно;
Для правильного выбора стратегии продвижения ресурса в поисковых системах нужно, в первую очередь, сделать анализ конкурентов из ТОП5 или 10 поисковой выдачи. Это позволит узнать показатели, характеризующие сильные и слабые стороны их сайтов.
Ведь ваши конкуренты заняли топовые позиции в выдаче поисковых систем под влиянием определенных факторов, и подробный анализ поможет узнать эти факторы. Анализ конкурентных сайтов позволит вам правильно определить задачи поисковой оптимизации, поможет получить исходные данные, которые лягут в основу стратегии продвижения, или же скорректировать уже проводимую кампанию.
Продолжительность: 01:18:14
Качество видео: PCRec
Видео: AVC/H.264, 1364x768, ~175 kbps
Аудио: AAC, 2 ch, 126 kbps, VBR

Mediainfo

Общее
Полное имя                               : C:\[Школа современных технологий] Среда знаний. SEO. Анализ конкурентов - 2015\SEO. Анализ конкурентов - 2015.mp4
Формат                                   : MPEG-4
Профиль формата                          : Base Media / Version 2
Идентификатор кодека                     : mp42
Размер файла                             : 170 Мбайт
Продолжительность                        : 1 ч. 18 м.
Режим общего битрейта                    : Переменный
Общий поток                              : 304 Кбит/сек
Дата кодирования                         : UTC 2015-03-22 13:22:18
Дата пометки                             : UTC 2015-03-22 13:22:18
Видео
Идентификатор                            : 1
Формат                                   : AVC
Формат/Информация                        : Advanced Video Codec
Профиль формата                          : [email protected]
Параметр CABAC формата                   : Нет
Параметр ReFrames формата                : 3 кадра
Идентификатор кодека                     : avc1
Идентификатор кодека/Информация          : Advanced Video Coding
Продолжительность                        : 1 ч. 18 м.
Битрейт                                  : 175 Кбит/сек
Ширина                                   : 1364 пикселя
Высота                                   : 768 пикселей
Соотношение сторон                       : 16:9
Режим частоты кадров                     : Постоянный
Частота кадров                           : 30,000 кадров/сек
Стандарт вещания                         : NTSC
Цветовое пространство                    : YUV
Субдискретизация насыщенности            : 4:2:0
Битовая глубина                          : 8 бит
Тип развёртки                            : Прогрессивная
Бит/(Пиксели*Кадры)                      : 0.006
Размер потока                            : 98,2 Мбайт (58%)
Язык                                     : English
Дата кодирования                         : UTC 2015-03-22 13:22:18
Дата пометки                             : UTC 2015-03-22 13:22:18
Цветовой диапазон                        : Limited
Аудио
Идентификатор                            : 2
Формат                                   : AAC
Формат/Информация                        : Advanced Audio Codec
Профиль формата                          : LC
Идентификатор кодека                     : 40
Продолжительность                        : 1 ч. 18 м.
Вид битрейта                             : Переменный
Битрейт                                  : 126 Кбит/сек
Максимальный битрейт                     : 379 Кбит/сек
Каналы                                   : 2 канала
Расположение каналов                     : Front: L R
Частота                                  : 44,1 КГц
Метод сжатия                             : С потерями
Размер потока                            : 70,3 Мбайт (41%)
Язык                                     : English
Дата кодирования                         : UTC 2015-03-22 13:22:18
Дата пометки                             : UTC 2015-03-22 13:22:18
Скриншоты:

[Цитировать]



Показать сообщения:    

Текущее время: 06-Дек 21:01

Часовой пояс: UTC + 3


Вы не можете начинать темы
Вы не можете отвечать на сообщения
Вы не можете редактировать свои сообщения
Вы не можете удалять свои сообщения
Вы не можете голосовать в опросах
Вы не можете прикреплять файлы к сообщениям
Вы не можете скачивать файлы

!ВНИМАНИЕ!
Сайт не предоставляет электронные версии произведений, а занимается лишь коллекционированием и каталогизацией ссылок, присылаемых и публикуемых на форуме нашими читателями. Если вы являетесь правообладателем какого-либо представленного материала и не желаете, чтобы ссылка на него находилась в нашем каталоге, свяжитесь с нами, и мы незамедлительно удалим ее. Файлы для обмена на трекере предоставлены пользователями сайта, и администрация не несет ответственности за их содержание. Просьба не заливать файлы, защищенные авторскими правами, а также файлы нелегального содержания!