[ Сегодня идет свободное скачивание без начисления Download ]


Статистика раздачи
Скачал: [ 4 ]
 
   
 
Top  
 
 
Информация о фильме
Название: Лицо со шрамом
Оригинальное название: Scarface
Год выхода: 1983
Жанр: триллер, драма, криминал
Режиссер: Брайан Де Пальма / Brian De Palma
В ролях: Аль Пачино, Стивен Бауэр, Мишель Пфайффер, Мэри Элизабет Мастрантонио, Роберт Лоджа, Мириам Колон, Ф. Мюррэй Абрахам, Пол Шенар, Харрис Юлин, Анхель Салазар
О фильме:
Весной 1980 года был открыт порт Мэйриэл Харбор, и тысячи кубинских беженцев ринулись в Соединенные Штаты на поиски Американской Мечты. Один из них нашел ее на залитых солнцем улицах Майами. Богатство, власть и страсть превзошли даже самые невероятные его мечты. Его звали Тони Монтана. Мир запомнил его под другим именем - «Лицо со шрамом»...

Страна: США
Продолжительность: 02:50:00
Перевод: Профессиональный (многоголосый, закадровый), авторский
Файл
Кодек: AVC
Качество: BDRip 720p
Видео: 1280x544, 59.940 fps, 5095 Kbps
Звук:
48 kHz, AC3, 6 ch, 448 kbps (А.Гаврилов)
48 kHz, AC3, 6 ch, 448 kbps (П.Гланц и И.Королева)
48 kHz, AC3, 6 ch, 448 kbps (Оригинал)
48 kHz, AC3, 6 ch, 448 kbps (Профессиональный, многоголосый закадровый)
Субтитры: Русские, английские
Семпл

MediaInfo

General
Unique ID : 171261167838260935021597818790730788098 (0x80D7B37E3DD7900C98CCB8DB5F23ED02)
Complete name : J:60FPSScarfaceScarface[60FPS by ZHz].mkv
Format : Matroska
Format version : Version 4 / Version 2
File size : 8.34 GiB
Duration : 2h 50mn
Overall bit rate : 7 027 Kbps
Movie name : ~ZHz~
Encoded date : UTC 2015-08-26 18:39:05
Writing application : mkvmerge v7.5.0 ('Glass Culture') 64bit built on Jan 4 2015 16:48:44
Writing library : libebml v1.3.1 + libmatroska v1.4.2
_STATISTICS_WRITING_APP : mkvmerge v7.5.0 ('Glass Culture') 64bit built on Jan 4 2015 16:48:44
_STATISTICS_WRITING_DATE_UT : 2015-08-26 18:39:05
_STATISTICS_TAGS : BPS DURATION NUMBER_OF_FRAMES NUMBER_OF_BYTES
DURATION : 02:43:58.662000000
NUMBER_OF_FRAMES : 38
NUMBER_OF_BYTES : 1417
Video
ID : 1
Format : AVC
Format/Info : Advanced Video Codec
Format profile : [email protected]
Format settings, CABAC : Yes
Format settings, ReFrames : 8 frames
Codec ID : V_MPEG4/ISO/AVC
Duration : 2h 50mn
Bit rate : 5 095 Kbps
Width : 1 280 pixels
Height : 544 pixels
Display aspect ratio : 2.35:1
Frame rate mode : Constant
Frame rate : 59.880 fps
Original frame rate : 59.940 fps
Color space : YUV
Chroma subsampling : 4:2:0
Bit depth : 8 bits
Scan type : Progressive
Bits/(Pixel*Frame) : 0.122
Stream size : 6.05 GiB (73%)
Writing library : x264 core 144 r2525 40bb568
Encoding settings : cabac=1 / ref=8 / deblock=1:0:0 / analyse=0x1:0x110 / me=umh / subme=9 / psy=1 / psy_rd=1.00:0.00 / mixed_ref=0 / me_range=28 / chroma_me=1 / trellis=2 / 8x8dct=0 / cqm=0 / deadzone=21,11 / fast_pskip=1 / chroma_qp_offset=-2 / threads=12 / lookahead_threads=1 / sliced_threads=0 / nr=0 / decimate=1 / interlaced=0 / bluray_compat=0 / constrained_intra=0 / bframes=5 / b_pyramid=2 / b_adapt=2 / b_bias=0 / direct=3 / weightb=1 / open_gop=0 / weightp=2 / keyint=250 / keyint_min=25 / scenecut=40 / intra_refresh=0 / rc=crf / mbtree=0 / crf=18.0 / qcomp=0.60 / qpmin=0 / qpmax=69 / qpstep=4 / ip_ratio=1.40 / pb_ratio=1.30 / aq=1:1.00
Language : English
Default : Yes
Forced : No
_STATISTICS_WRITING_APP : mkvmerge v7.5.0 ('Glass Culture') 64bit built on Jan 4 2015 16:48:44
_STATISTICS_WRITING_DATE_UT : 2015-08-26 18:39:05
_STATISTICS_TAGS : BPS DURATION NUMBER_OF_FRAMES NUMBER_OF_BYTES
DURATION : 02:50:00.134000000
NUMBER_OF_FRAMES : 611396
NUMBER_OF_BYTES : 6668117138
Audio #1
ID : 2
Format : AC-3
Format/Info : Audio Coding 3
Mode extension : CM (complete main)
Format settings, Endianness : Big
Codec ID : A_AC3
Duration : 2h 50mn
Bit rate mode : Constant
Bit rate : 448 Kbps
Channel(s) : 6 channels
Channel positions : Front: L C R, Side: L R, LFE
Sampling rate : 48.0 KHz
Compression mode : Lossy
Stream size : 545 MiB (6%)
Title : А.Гаврилов
Language : Russian
Default : No
Forced : No
Audio #2
ID : 3
Format : AC-3
Format/Info : Audio Coding 3
Mode extension : CM (complete main)
Format settings, Endianness : Big
Codec ID : A_AC3
Duration : 2h 50mn
Bit rate mode : Constant
Bit rate : 448 Kbps
Channel(s) : 6 channels
Channel positions : Front: L C R, Side: L R, LFE
Sampling rate : 48.0 KHz
Compression mode : Lossy
Stream size : 545 MiB (6%)
Title : П.Гланц и И.Королева
Language : Russian
Default : No
Forced : No
Audio #3
ID : 4
Format : AC-3
Format/Info : Audio Coding 3
Mode extension : CM (complete main)
Format settings, Endianness : Big
Codec ID : A_AC3
Duration : 2h 50mn
Bit rate mode : Constant
Bit rate : 448 Kbps
Channel(s) : 6 channels
Channel positions : Front: L C R, Side: L R, LFE
Sampling rate : 48.0 KHz
Compression mode : Lossy
Stream size : 545 MiB (6%)
Title : Original
Language : English
Default : No
Forced : No
Audio #4
ID : 5
Format : AC-3
Format/Info : Audio Coding 3
Mode extension : CM (complete main)
Format settings, Endianness : Big
Codec ID : A_AC3
Duration : 2h 50mn
Bit rate mode : Constant
Bit rate : 448 Kbps
Channel(s) : 6 channels
Channel positions : Front: L C R, Side: L R, LFE
Sampling rate : 48.0 KHz
Compression mode : Lossy
Stream size : 545 MiB (6%)
Title : Профессиональный, многоголосый закадровый
Language : Russian
Default : Yes
Forced : Yes
Text #1
ID : 6
Format : UTF-8
Codec ID : S_TEXT/UTF8
Codec ID/Info : UTF-8 Plain Text
Language : Russian
Default : No
Forced : No
Text #2
ID : 7
Format : UTF-8
Codec ID : S_TEXT/UTF8
Codec ID/Info : UTF-8 Plain Text
Title : SDH
Language : English
Default : No
Forced : No
Text #3
ID : 8
Format : UTF-8
Codec ID : S_TEXT/UTF8
Codec ID/Info : UTF-8 Plain Text
Title : Forced
Language : English
Default : No
Forced : No
Menu
00:00:00.000 : en:A Politcal Prisoner (Main Titles)
00:08:11.574 : en:Freedom Town
00:10:55.237 : en:A Killing for a Green Card
00:13:40.194 : en:The Good Life
00:15:43.025 : en:A New Job
00:20:58.298 : en:Colombians and Chain Saws
00:29:51.289 : en:Mr. Lopez
00:33:09.362 : en:Elvira
00:34:42.538 : en:A Night in Babylon
00:43:13.173 : en:How to Pick Up Girls
00:46:46.053 : en:Going in Style
00:50:45.250 : en:The Prodigal Returns
00:59:02.705 : en:The Drug Lord
01:04:15.643 : en:Revenge
01:08:20.471 : en:Serious Money
01:12:57.539 : en:A Proposal
01:17:17.841 : en:Shakedown
01:23:33.133 : en:Brothery Love
01:28:48.323 : en:Two Guns for Tony
01:33:44.243 : en:A Hostile Takeover
01:43:31.496 : en:Prosperity
01:47:01.706 : en:Laundry Bills
01:51:48.410 : en:Philosophy in the Bathtub
01:57:19.991 : en:The Cost of Doing Business
02:02:43.105 : en:Problems and Solutions
02:07:08.203 : en:Dinner Conversation
02:13:58.405 : en:Prelude to Murder
02:16:04.447 : en:No Women and Children
02:21:46.080 : en:Severing Business Ties
02:24:22.779 : en:The End of the Honeymoon
02:30:37.862 : en:Preparing for War
02:35:14.888 : en:Gina's Offering
02:37:33.068 : en:Siege
02:40:04.303 : en:Montana's Last Stand
02:43:20.999 : en:End Titles

Скриншоты

Релиз от:

[Цитировать]



Показать сообщения:    

Текущее время: 05-Дек 21:42

Часовой пояс: UTC + 3


Вы не можете начинать темы
Вы не можете отвечать на сообщения
Вы не можете редактировать свои сообщения
Вы не можете удалять свои сообщения
Вы не можете голосовать в опросах
Вы не можете прикреплять файлы к сообщениям
Вы не можете скачивать файлы

!ВНИМАНИЕ!
Сайт не предоставляет электронные версии произведений, а занимается лишь коллекционированием и каталогизацией ссылок, присылаемых и публикуемых на форуме нашими читателями. Если вы являетесь правообладателем какого-либо представленного материала и не желаете, чтобы ссылка на него находилась в нашем каталоге, свяжитесь с нами, и мы незамедлительно удалим ее. Файлы для обмена на трекере предоставлены пользователями сайта, и администрация не несет ответственности за их содержание. Просьба не заливать файлы, защищенные авторскими правами, а также файлы нелегального содержания!