[ Сегодня идет свободное скачивание без начисления Download ]


Статистика раздачи
Скачал: [ 1 ]
 
   
 
Top  
 
 
-Название: К-19
Оригинальное название: K-19: The Widowmaker
Год выпуска: 2002
Страна: Великобритания, Германия, США, Канада
Жанр: триллер, драма, военный, история
Продолжительность: 02:18:05
Перевод: Дубляж
Субтитры: русские (Полные), английские (Полные)-Режиссер: Кэтрин Бигелоу / Kathryn Bigelow-В ролях: Харрисон Форд (Capt. Alexei Vostrikov), Лиам Нисон (Capt. Mikhail Polenin), Питер Сарсгаард (Lt. Vadim Radtchinko), Сэм Спруэлл (Dmitri), Тим Вудворд (Partonov), Стив Николсон (Demichev), Питер Стеббингс (Kuryshev), Лекс Шрэпнел (Kornilov), Джон Шрэпнел (Admiral Bratyeev), Лев Прыгунов (Ivan Vershinin), Равиль Исянов (Suslov), Джей Джей Филд (Andrei)-Описание:
Фильм основан на реальных событиях, произошедших с первой атомной советской подводной лодкой, которая потерпела аварию из-за неполадок в атомном реакторе в 1961 году. К-19 - это зримое свидетельство героизма русских моряков, которые служили на этой подводной лодке.
Фильм демонстрирует героизм капитана Алексея Вострикова, который в разгар холодной войны берет на себя командование атомной подводной лодкой К-19 вместо ее первого капитана Михаила Поленина. Миссия Вострикова - быстро подготовить подлодку к погружению, чего бы это ни стоило.
Но Востриков, Поленин и члены экипажа К-19 не могли себе вообразить всего, что от них ожидалось. Они не могли представить, какой ценой обойдется для них стремительность подготовки субмарины к погружению...-Рейтинг

imdb.com: 6.60 (46 162)
MPAA: PG-13 - Детям до 13 лет просмотр не желателен-Качество: BDRip-AVC 60fps
Формат: MKV
Видео кодек: AVC
Аудио кодек:AC3
Видео: AVC, 1024x432 (2.35:1), 3650 kbps, 59,940 fps, 0,138 bpp
Аудио: русский / AC3 / 5.1 / 48 kHz / 448 kbps / 16 bit |Дубляж|
Навигация по главам: есть- -

MI

General
Unique ID : 216870786606241272396936866664323726295 (0xA327CB509C6F9B07A40E39FE329BBBD7)
Format : Matroska
Format version : Version 4 / Version 2
File size : 3.96 GiB
Duration : 2h 18mn
Overall bit rate : 4 101 Kbps
Movie name : Tiberiumsun69
Encoded date : UTC 2015-08-21 10:05:36
Writing application : mkvmerge v7.9.0 ('Birds') 64bit
Writing library : libebml v1.3.1 + libmatroska v1.4.2
Attachment : Yes
Video
ID : 1
Format : AVC
Format/Info : Advanced Video Codec
Format profile : [email protected]
Format settings, CABAC : Yes
Format settings, ReFrames : 4 frames
Codec ID : V_MPEG4/ISO/AVC
Duration : 2h 18mn
Bit rate : 3 650 Kbps
Width : 1 024 pixels
Height : 432 pixels
Display aspect ratio : 2.35:1
Frame rate : 59.940 fps
Color space : YUV
Chroma subsampling : 4:2:0
Bit depth : 8 bits
Scan type : Progressive
Bits/(Pixel*Frame) : 0.138
Stream size : 3.45 GiB (87%)
Title : Tiberiumsun69
Writing library : x264 core 146 r2538 121396c
Encoding settings : cabac=1 / ref=3 / deblock=1:0:0 / analyse=0x3:0x113 / me=umh / subme=9 / psy=1 / psy_rd=1.00:0.10 / mixed_ref=1 / me_range=32 / chroma_me=1 / trellis=2 / 8x8dct=1 / cqm=0 / deadzone=21,11 / fast_pskip=0 / chroma_qp_offset=-3 / threads=12 / lookahead_threads=3 / sliced_threads=0 / nr=0 / decimate=1 / interlaced=0 / bluray_compat=0 / constrained_intra=0 / bframes=16 / b_pyramid=2 / b_adapt=2 / b_bias=0 / direct=3 / weightb=1 / open_gop=0 / weightp=2 / keyint=600 / keyint_min=59 / scenecut=40 / intra_refresh=0 / rc_lookahead=40 / rc=2pass / mbtree=0 / bitrate=3650 / ratetol=1.0 / qcomp=0.60 / qpmin=0 / qpmax=69 / qpstep=4 / cplxblur=20.0 / qblur=0.5 / vbv_maxrate=50000 / vbv_bufsize=62500 / nal_hrd=none / filler=0 / ip_ratio=1.40 / pb_ratio=1.30 / aq=1:1.00
Language : English
Default : Yes
Forced : No
Audio
ID : 2
Format : AC-3
Format/Info : Audio Coding 3
Mode extension : CM (complete main)
Codec ID : A_AC3
Duration : 2h 18mn
Bit rate mode : Constant
Bit rate : 448 Kbps
Channel(s) : 6 channels
Channel positions : Front: L C R, Side: L R, LFE
Sampling rate : 48.0 KHz
Bit depth : 16 bits
Compression mode : Lossy
Stream size : 443 MiB (11%)
Title : Дубляж
Language : Russian
Default : Yes
Forced : No
Text #1
ID : 3
Format : UTF-8
Codec ID : S_TEXT/UTF8
Codec ID/Info : UTF-8 Plain Text
Title : Полные
Language : Russian
Default : No
Forced : No
Text #2
ID : 4
Format : UTF-8
Codec ID : S_TEXT/UTF8
Codec ID/Info : UTF-8 Plain Text
Title : Полные
Language : English
Default : No
Forced : No
Menu
00:00:00.000 : en:00:00:00.000
00:09:01.416 : en:00:09:01.416
00:23:28.449 : en:00:23:28.449
00:30:02.968 : en:00:30:02.968
00:36:44.994 : en:00:36:44.994
00:44:42.847 : en:00:44:42.847
00:49:55.242 : en:00:49:55.242
00:56:44.901 : en:00:56:44.901
01:03:18.253 : en:01:03:18.253
01:09:37.840 : en:01:09:37.840
01:26:18.215 : en:01:26:18.215
01:35:12.790 : en:01:35:12.790
01:45:33.994 : en:01:45:33.994
01:54:40.165 : en:01:54:40.165
02:03:27.317 : en:02:03:27.317
02:09:20.670 : en:02:09:20.670

Скриншоты

Просьба к переливающим на другие сайты, в оформлении указывайте пожалуйста авторство группы

[Цитировать]



Показать сообщения:    

Текущее время: 04-Дек 09:10

Часовой пояс: UTC + 3


Вы не можете начинать темы
Вы не можете отвечать на сообщения
Вы не можете редактировать свои сообщения
Вы не можете удалять свои сообщения
Вы не можете голосовать в опросах
Вы не можете прикреплять файлы к сообщениям
Вы не можете скачивать файлы

!ВНИМАНИЕ!
Сайт не предоставляет электронные версии произведений, а занимается лишь коллекционированием и каталогизацией ссылок, присылаемых и публикуемых на форуме нашими читателями. Если вы являетесь правообладателем какого-либо представленного материала и не желаете, чтобы ссылка на него находилась в нашем каталоге, свяжитесь с нами, и мы незамедлительно удалим ее. Файлы для обмена на трекере предоставлены пользователями сайта, и администрация не несет ответственности за их содержание. Просьба не заливать файлы, защищенные авторскими правами, а также файлы нелегального содержания!