[ Сегодня идет свободное скачивание без начисления Download ]


Статистика раздачи
Нет
 
   
 
Top  
 
 
Oleg Lav | Camtasia Studio — профессиональный видеоредактор (2015) PCRec [H.264/720p] - Автор (режиссер): Oleg Lav
Жанр: Видеоредактор
Описание:
Camtasia Studio — профессиональный видеоредактор...
Просто так программа не установиться, ей нужна программная платформа .NET Framework. Заходим в Панель управления — Программы и компоненты — Включение или отключение компонентов Windows...
Продолжительность: 00:12:24
Качество видео: PCRec
Видео: AVC/H.264, 1280x720, ~449 Kbps
Аудио: AAC, 2 ch, 192 Kbps, VBR

Mediainfo:

General
Format                         : MPEG-4
Format profile                 : Base Media / Version 2
Codec ID                       : mp42
File size                      : 57.2 MiB
Duration                       : 12mn 24s
Overall bit rate mode          : Variable
Overall bit rate               : 644 Kbps
Encoded date                   : UTC 2015-08-26 15:50:37
Tagged date                    : UTC 2015-08-26 15:50:37
gsst                           : 0
gstd                           : 745011
gssd                           : B0AFCE35AHM1440682819271144
gshh                           : r5---sn-4g57kn7z.googlevideo.com
Video
ID                             : 1
Format                         : AVC
Format/Info                    : Advanced Video Codec
Format profile                 : High@L3.1
Format settings, CABAC         : Yes
Format settings, ReFrames      : 1 frame
Codec ID                       : avc1
Codec ID/Info                  : Advanced Video Coding
Duration                       : 12mn 24s
Bit rate                       : 449 Kbps
Maximum bit rate               : 7 159 Kbps
Width                          : 1 280 pixels
Height                         : 720 pixels
Display aspect ratio           : 16:9
Frame rate mode                : Constant
Frame rate                     : 30.000 fps
Color space                    : YUV
Chroma subsampling             : 4:2:0
Bit depth                      : 8 bits
Scan type                      : Progressive
Bits/(Pixel*Frame)             : 0.016
Stream size                    : 39.9 MiB (70%)
Tagged date                    : UTC 2015-08-26 15:50:39
Audio
ID                             : 2
Format                         : AAC
Format/Info                    : Advanced Audio Codec
Format profile                 : LC
Codec ID                       : 40
Duration                       : 12mn 24s
Bit rate mode                  : Variable
Bit rate                       : 192 Kbps
Maximum bit rate               : 201 Kbps
Channel(s)                     : 2 channels
Channel positions              : Front: L R
Sampling rate                  : 44.1 KHz
Compression mode               : Lossy
Stream size                    : 17.1 MiB (30%)
Title                          : IsoMedia File Produced by Google, 5-11-2011
Language                       : English
Encoded date                   : UTC 2015-08-26 15:50:38
Tagged date                    : UTC 2015-08-26 15:50:39
Скриншоты:

[Цитировать]



Показать сообщения:    

Текущее время: 09-Дек 20:20

Часовой пояс: UTC + 3


Вы не можете начинать темы
Вы не можете отвечать на сообщения
Вы не можете редактировать свои сообщения
Вы не можете удалять свои сообщения
Вы не можете голосовать в опросах
Вы не можете прикреплять файлы к сообщениям
Вы не можете скачивать файлы

!ВНИМАНИЕ!
Сайт не предоставляет электронные версии произведений, а занимается лишь коллекционированием и каталогизацией ссылок, присылаемых и публикуемых на форуме нашими читателями. Если вы являетесь правообладателем какого-либо представленного материала и не желаете, чтобы ссылка на него находилась в нашем каталоге, свяжитесь с нами, и мы незамедлительно удалим ее. Файлы для обмена на трекере предоставлены пользователями сайта, и администрация не несет ответственности за их содержание. Просьба не заливать файлы, защищенные авторскими правами, а также файлы нелегального содержания!