[ Сегодня идет свободное скачивание без начисления Download ]


Статистика раздачи
Нет
 
   
 
Top  
 
 
Школа современных технологий | Среда знаний. Яндекс. Минусинск (2015) PCRec [H.264]- Автор (режиссер): Андрей Милаев
Жанр: SEO
Описание:
Поисковые системы постоянно работают над повышением качества выдачи и, стремясь снизить искусственное влияние на нее со стороны сеошников, ужесточают требования к ссылочной массе и снижают влияние ссылок вообще, одновременно работая над усилением влияния внутренних показателей сайта. По заявлению специалистов Яндекса в определении релевантности сайта участвуют, кроме ссылочных, около 800 показателей.
И что случилось? Недавно представитель Яндекса заявил о новом этапе в борьбе с влиянием искусственных ссылок - запуске алгоритма "Минусинск". С 14 мая сайты, для продвижения которых используются SEO-ссылки, могут ранжироваться ниже. Кому стоит бояться нового алгоритма? Что изменится в сфере SEO после его введения? Так ли страшен черт, как его малюют? Попробуем в этом разобраться на вебинаре.
Продолжительность: 01:23:17
Качество видео: PCRec
Видео: AVC/H.264, 640x480, ~47,8-48,0 kbps
Аудио: AAC, 2 ch, 126 kbps, VBR

Содержание курса:

Факторы, влияющие на ранжирование
Обзор алгоритма "Минусинск"
Перспективы закупки ссылок
Перспективы SeoPult и Sape

Mediainfo:

Общее
Полное имя                               : C:\[Школа современных технологий] Среда знаний. Яндекс. Минусинск - 2015\2.mp4
Формат                                   : MPEG-4
Профиль формата                          : Base Media / Version 2
Идентификатор кодека                     : mp42
Размер файла                             : 47,8 Мбайт
Продолжительность                        : 37 м.
Режим общего битрейта                    : Переменный
Общий поток                              : 176 Кбит/сек
Дата кодирования                         : UTC 2015-05-26 13:38:50
Дата пометки                             : UTC 2015-05-26 13:38:50
Видео
Идентификатор                            : 1
Формат                                   : AVC
Формат/Информация                        : Advanced Video Codec
Профиль формата                          : Baseline@L3
Параметр CABAC формата                   : Нет
Параметр ReFrames формата                : 3 кадра
Идентификатор кодека                     : avc1
Идентификатор кодека/Информация          : Advanced Video Coding
Продолжительность                        : 37 м.
Битрейт                                  : 47,8 Кбит/сек
Ширина                                   : 640 пикселей
Высота                                   : 480 пикселей
Соотношение сторон                       : 4:3
Режим частоты кадров                     : Постоянный
Частота кадров                           : 30,000 кадров/сек
Стандарт вещания                         : NTSC
Цветовое пространство                    : YUV
Субдискретизация насыщенности            : 4:2:0
Битовая глубина                          : 8 бит
Тип развёртки                            : Прогрессивная
Бит/(Пиксели*Кадры)                      : 0.005
Размер потока                            : 13,0 Мбайт (27%)
Язык                                     : English
Дата кодирования                         : UTC 2015-05-26 13:38:51
Дата пометки                             : UTC 2015-05-26 13:38:51
Цветовой диапазон                        : Limited
Аудио
Идентификатор                            : 2
Формат                                   : AAC
Формат/Информация                        : Advanced Audio Codec
Профиль формата                          : LC
Идентификатор кодека                     : 40
Продолжительность                        : 37 м.
Продолжительность оригинала              : 37 м.
Вид битрейта                             : Переменный
Битрейт                                  : 126 Кбит/сек
Максимальный битрейт                     : 258 Кбит/сек
Каналы                                   : 2 канала
Расположение каналов                     : Front: L R
Частота                                  : 44,1 КГц
Метод сжатия                             : С потерями
Размер потока                            : 34,1 Мбайт (71%)
Размер потока оригинала                  : 34,1 Мбайт (71%)
Язык                                     : English
Дата кодирования                         : UTC 2015-05-26 13:38:51
Дата пометки                             : UTC 2015-05-26 13:38:51
Общее
Полное имя                               : C:\[Школа современных технологий] Среда знаний. Яндекс. Минусинск - 2015\1.mp4
Формат                                   : MPEG-4
Профиль формата                          : Base Media / Version 2
Идентификатор кодека                     : mp42
Размер файла                             : 57,2 Мбайт
Продолжительность                        : 45 м.
Режим общего битрейта                    : Переменный
Общий поток                              : 176 Кбит/сек
Дата кодирования                         : UTC 2015-05-26 12:54:24
Дата пометки                             : UTC 2015-05-26 12:54:24
Видео
Идентификатор                            : 1
Формат                                   : AVC
Формат/Информация                        : Advanced Video Codec
Профиль формата                          : Baseline@L3
Параметр CABAC формата                   : Нет
Параметр ReFrames формата                : 3 кадра
Идентификатор кодека                     : avc1
Идентификатор кодека/Информация          : Advanced Video Coding
Продолжительность                        : 45 м.
Битрейт                                  : 48,0 Кбит/сек
Ширина                                   : 640 пикселей
Высота                                   : 480 пикселей
Соотношение сторон                       : 4:3
Режим частоты кадров                     : Постоянный
Частота кадров                           : 30,000 кадров/сек
Стандарт вещания                         : NTSC
Цветовое пространство                    : YUV
Субдискретизация насыщенности            : 4:2:0
Битовая глубина                          : 8 бит
Тип развёртки                            : Прогрессивная
Бит/(Пиксели*Кадры)                      : 0.005
Размер потока                            : 15,6 Мбайт (27%)
Язык                                     : English
Дата кодирования                         : UTC 2015-05-26 12:54:25
Дата пометки                             : UTC 2015-05-26 12:54:25
Цветовой диапазон                        : Limited
Аудио
Идентификатор                            : 2
Формат                                   : AAC
Формат/Информация                        : Advanced Audio Codec
Профиль формата                          : LC
Идентификатор кодека                     : 40
Продолжительность                        : 45 м.
Продолжительность оригинала              : 45 м.
Вид битрейта                             : Переменный
Битрейт                                  : 126 Кбит/сек
Максимальный битрейт                     : 258 Кбит/сек
Каналы                                   : 2 канала
Расположение каналов                     : Front: L R
Частота                                  : 44,1 КГц
Метод сжатия                             : С потерями
Размер потока                            : 40,7 Мбайт (71%)
Размер потока оригинала                  : 40,7 Мбайт (71%)
Язык                                     : English
Дата кодирования                         : UTC 2015-05-26 12:54:25
Дата пометки                             : UTC 2015-05-26 12:54:25
Скриншоты:

[Цитировать]



Показать сообщения:    

Текущее время: 08-Дек 07:09

Часовой пояс: UTC + 3


Вы не можете начинать темы
Вы не можете отвечать на сообщения
Вы не можете редактировать свои сообщения
Вы не можете удалять свои сообщения
Вы не можете голосовать в опросах
Вы не можете прикреплять файлы к сообщениям
Вы не можете скачивать файлы

!ВНИМАНИЕ!
Сайт не предоставляет электронные версии произведений, а занимается лишь коллекционированием и каталогизацией ссылок, присылаемых и публикуемых на форуме нашими читателями. Если вы являетесь правообладателем какого-либо представленного материала и не желаете, чтобы ссылка на него находилась в нашем каталоге, свяжитесь с нами, и мы незамедлительно удалим ее. Файлы для обмена на трекере предоставлены пользователями сайта, и администрация не несет ответственности за их содержание. Просьба не заливать файлы, защищенные авторскими правами, а также файлы нелегального содержания!