[ Сегодня идет свободное скачивание без начисления Download ]


Статистика раздачи
Нет
 
   
 
Top  
 
 
Побег из тюрьмы / Prison Break [Season 2]«Совершить побег - не значит убежать...» -Год выпуска: 2006—2007
Страна: США | 20th Century Fox Television
Жанр: боевик, приключения, драма, триллер
Продолжительность: ~00:44 x22 | 22 x2,58 ГБ
Перевод
  • Профессиональный (полное дублирование) - Ren-TV
  • Профессиональный (многоголосый, закадровый) - С.Р.И
  • Профессиональный (двухголосый, закадровый) - НоваФильм
Оригинальная дорожка: Английская
Субтитры: русские, английские-Автор идеи: Пол Шойринг / Paul Scheuring
В ролях: Доминик Пурселл, Вентворт Миллер, Роберт Нэппер, Амори Ноласко, Сара Уэйн Коллис, Уэйд Уильямс, Уильям Фихтнер, Пол Эделстин, Маршалл Эллман, Рокмонд Данбар-Описание: Проектировщик тюрем намеренно совершает преступление и попадает в одну из построенных им зон с целью помочь несправедливо осужденному брату избежать смертного приговора.
Майкл Скофилд — отчаявшийся человек в отчаянных обстоятельствах: его родной брат Линкольн приговорен к смертной казни за убийство и пребывает в камере смертников в одной из самых строго охраняемых тюрем страны. Несмотря на многочисленные улики, свидетельствующие не в пользу брата, Майкл убежден, что тот невиновен. Понимая, что каждый день приближает исполнение приговора, он инсценирует ограбление банка и, таким образом, попадает в ту же зону, веря, что там он сможет организовать их совместный побег и потом, на свободе, — доказать, что брат стал жертвой заговора.
Несмотря на внешнюю безумность затеянного, он — единственный, кому по силам осуществить этот план. Мало кому известно, что именно он несколькими годами ранее разработал проект этой тюрьмы и ему, как никому другому, известны все мельчайшие детали, как внешние, так и скрытые от глаз, особенностей ее устройства.
«Побег» — исполненная напряжения, изобилующая неожиданными поворотами сюжета история осуществления отчаянного плана вопреки противоборству обстоятельств.-Релиз подготовил: uxTuaHgp
Рипы EbP
Сэмпл - http://multi-up.com/730769-Качество: BDRip 720p
Формат: MKV
Видео кодек: H.264
Аудио кодек: AC3, DTS
Видео: 1280x720, ~5600 Kbps, 23.976 fps
Аудио#1: AC3 5.1, 48 KHz, 448 Kbps |Ren Tv|
Aудио#2: AC3 5.1, 48 KHz, 448 Kbps |С.Р.И.|
Аудио#3: AC3 5.1, 48 KHz, 384 Kbps |NovaFilm|
Aудио#4: DTS 5.1, 48 KHz, 1510 Kbps |Оригинальная дорожка|-

MediaInfo

Complete name                    : Prison.Break.S02.720p.BluRay.DTS.x264-EbP\Prison.Break.S02E01.720p.BluRay.DTS.x264-EbP.mkv
Format                           : Matroska
File size                        : 2.56 GiB
Duration                         : 41mn 27s
Overall bit rate                 : 8 831 Kbps
Encoded date                     : UTC 2010-03-04 11:40:53
Writing application              : mkvmerge v2.5.3 ('Boogie') built on Mar  7 2009 15:00:41
Writing library                  : libebml v0.7.7 + libmatroska v0.8.1
Video
ID                               : 1
Format                           : AVC
Format/Info                      : Advanced Video Codec
Format profile                   : [email protected]
Format settings, CABAC           : Yes
Format settings, ReFrames        : 7 frames
Muxing mode                      : Container [email protected]
Codec ID                         : V_MPEG4/ISO/AVC
Duration                         : 41mn 25s
Bit rate                         : 5 865 Kbps
Nominal bit rate                 : 6 041 Kbps
Width                            : 1 280 pixels
Height                           : 720 pixels
Display aspect ratio             : 16:9
Frame rate                       : 23.976 fps
Resolution                       : 24 bits
Colorimetry                      : 4:2:0
Scan type                        : Progressive
Bits/(Pixel*Frame)               : 0.265
Stream size                      : 1.70 GiB (66%)
Title                            : Manhunt
Writing library                  : x264 core 80 r1376M 3feaec2
Encoding settings                : cabac=1 / ref=7 / deblock=1:-3:-3 / analyse=0x3:0x113 / me=umh / subme=9 / psy=1 / psy_rd=0.9:0.1 / mixed_ref=1 / me_range=24 / chroma_me=1 / trellis=2 / 8x8dct=1 / cqm=0 / deadzone=21,11 / fast_pskip=0 / chroma_qp_offset=-3 / threads=12 / sliced_threads=0 / nr=0 / decimate=1 / mbaff=0 / constrained_intra=0 / bframes=5 / b_pyramid=2 / b_adapt=2 / b_bias=0 / direct=3 / wpredb=1 / wpredp=2 / keyint=250 / keyint_min=25 / scenecut=40 / rc=2pass / mbtree=0 / bitrate=6041 / ratetol=1.0 / qcomp=0.60 / qpmin=10 / qpmax=51 / qpstep=4 / cplxblur=20.0 / qblur=0.5 / ip_ratio=1.40 / pb_ratio=1.30 / aq=1:0.70
Language                         : English
Audio #1
ID                               : 2
Format                           : AC-3
Format/Info                      : Audio Coding 3
Codec ID                         : A_AC3
Duration                         : 41mn 27s
Bit rate mode                    : Constant
Bit rate                         : 448 Kbps
Channel(s)                       : 6 channels
Channel positions                : Front: L C R, Surround: L R, LFE
Sampling rate                    : 48.0 KHz
Stream size                      : 133 MiB (5%)
Title                            : Ren-Tv
Language                         : Russian
Audio #2
ID                               : 3
Format                           : AC-3
Format/Info                      : Audio Coding 3
Codec ID                         : A_AC3
Duration                         : 41mn 27s
Bit rate mode                    : Constant
Bit rate                         : 448 Kbps
Channel(s)                       : 6 channels
Channel positions                : Front: L C R, Surround: L R, LFE
Sampling rate                    : 48.0 KHz
Stream size                      : 133 MiB (5%)
Title                            : С.Р.И
Language                         : Russian
Audio #3
ID                               : 4
Format                           : AC-3
Format/Info                      : Audio Coding 3
Codec ID                         : A_AC3
Duration                         : 41mn 27s
Bit rate mode                    : Constant
Bit rate                         : 384 Kbps
Channel(s)                       : 6 channels
Channel positions                : Front: L C R, Surround: L R, LFE
Sampling rate                    : 48.0 KHz
Stream size                      : 114 MiB (4%)
Title                            : NovaFilm
Language                         : Russian
Audio #4
ID                               : 5
Format                           : DTS
Format/Info                      : Digital Theater Systems
Codec ID                         : A_DTS
Duration                         : 41mn 27s
Bit rate mode                    : Constant
Bit rate                         : 1 510 Kbps
Channel(s)                       : 6 channels
Channel positions                : Front: L C R, Surround: L R, LFE
Sampling rate                    : 48.0 KHz
Resolution                       : 24 bits
Stream size                      : 448 MiB (17%)
Title                            : DTS core 5.1 @ 1.5 Mbps
Language                         : English
Text #1
ID                               : 6
Format                           : UTF-8
Codec ID                         : S_TEXT/UTF8
Codec ID/Info                    : UTF-8 Plain Text
Language                         : Russian
Text #2
ID                               : 7
Format                           : UTF-8
Codec ID                         : S_TEXT/UTF8
Codec ID/Info                    : UTF-8 Plain Text
Language                         : English
Menu
00:00:00.000                     : :00:00:00.000
00:05:46.471                     : :00:05:46.471
00:10:20.829                     : :00:10:20.829
00:13:37.191                     : :00:13:37.191
00:16:06.424                     : :00:16:06.424
00:18:56.469                     : :00:18:56.469
00:21:39.298                     : :00:21:39.298
00:24:26.799                     : :00:24:26.799
00:29:06.078                     : :00:29:06.078
00:32:55.599                     : :00:32:55.599
00:36:34.818                     : :00:36:34.818
00:39:19.566                     : :00:39:19.566

Список серии

  • Manhunt / Преследование
  • Otis / Отис
  • Scan / Анализ событий
  • First Down / Первая жертва
  • Map 1213 / Карта 1213
  • Subdivision / Команда
  • Buried / Клад
  • Dead Fall / Капкан
  • Unearthed / Раскопка
  • Rendezvous / Место встречи
  • Bolshoi Booze / Большой Буз
  • Disconnect / Обрыв связи
  • The Killing Box / Между двух огней
  • John Doe / Неопознанный труп
  • The Message / Послание
  • Chicago / Чикаго
  • Bad Blood / Никчемный род
  • Wash / Очищение
  • Sweet Caroline / Милая Кэролайн
  • Panama / Панама
  • Fin del camino / Конец пути
  • Sona / «Сона»
-

[Цитировать]



Показать сообщения:    

Текущее время: 06-Дек 22:59

Часовой пояс: UTC + 3


Вы не можете начинать темы
Вы не можете отвечать на сообщения
Вы не можете редактировать свои сообщения
Вы не можете удалять свои сообщения
Вы не можете голосовать в опросах
Вы не можете прикреплять файлы к сообщениям
Вы не можете скачивать файлы

!ВНИМАНИЕ!
Сайт не предоставляет электронные версии произведений, а занимается лишь коллекционированием и каталогизацией ссылок, присылаемых и публикуемых на форуме нашими читателями. Если вы являетесь правообладателем какого-либо представленного материала и не желаете, чтобы ссылка на него находилась в нашем каталоге, свяжитесь с нами, и мы незамедлительно удалим ее. Файлы для обмена на трекере предоставлены пользователями сайта, и администрация не несет ответственности за их содержание. Просьба не заливать файлы, защищенные авторскими правами, а также файлы нелегального содержания!