[ Сегодня идет свободное скачивание без начисления Download ]


Статистика раздачи
Нет
 
   
 
Top  
 
 
Сладкая жизнь-- Год выпуска: 2015
Страна: Россия
Жанр: Драма, комедия
Продолжительность: ~ 00:46:00 серия-В ролях: Марта Носова, Никита Панфилов, Анастасия Меськова, Антон Денисенко, Мария Шумакова, Роман Маякин, Лукерья Ильяшенко, Анастасия Клюева, Николь Спиридонова, Павел Слепухов, Антон Батырев, Артур Бичахчян, Эдуард Мацаберидзе
Описание:«Сладкая жизнь» — это сериал про любовь и про наше время. Время, показанное через страсть и через предательство, через иронию и страхи, через богатство и бедность, через счастье и одиночество. Второй сезон продолжает откровенную историю про поколение тридцатилетних в современной России. Единственное, в чем по-настоящему успешны герои «Сладкой жизни», — это в умении создавать себе проблемы. Все они стремятся жить только так, как хочется им. Кто-то никак не может отпустить прошлое, кто-то хочет красивой жизни, а кто-то секса на стороне. Создатели сериала не боятся показывать зрителям чужую жизнь такой, какая она есть, во всем ее очаровании и несовершенстве- --Качество видеоSATRip
Формат AVI
Видеокодек XviD
Аудиокодек MP3, 2 ch
Видео XviD, ~ 1838 kb/s, 720x400
Аудио MP3, 2 ch, 128 kb/s
Возраст: 16+
Производство: Россия, Good Story Media по заказу ТНТ--

MediaInfo

Общее
Формат : AVI
Формат/Информация : Audio Video Interleave
Размер файла : 662 Мбайт
Продолжительность : 46 м.
Общий поток : 1980 Кбит/сек
Видео
Идентификатор : 0
Формат : MPEG-4 Visual
Профиль формата : Advanced [email protected]
Параметр BVOP формата : 2
Параметр QPel формата : Нет
Параметр GMC формата : Без точки перехода
Параметр матрицы формата : Default (H.263)
Идентификатор кодека : XVID
Идентификатор кодека/Подсказка : XviD
Продолжительность : 46 м.
Битрейт : 1838 Кбит/сек
Ширина : 720 пикселей
Высота : 400 пикселей
Соотношение сторон : 16:9
Частота кадров : 25,000 кадров/сек
Цветовое пространство : YUV
Субдискретизация насыщенности : 4:2:0
Битовая глубина : 8 бит
Тип развёртки : Прогрессивная
Метод сжатия : С потерями
Бит/(Пиксели*Кадры) : 0.255
Размер потока : 614 Мбайт (93%)
Библиотека кодирования : XviD 1.2.1 (UTC 2008-12-04)
Аудио
Идентификатор : 1
Формат : MPEG Audio
Версия формата : Version 1
Профиль формата : Layer 3
Режим : Joint stereo
Идентификатор кодека : 55
Идентификатор кодека/Подсказка : MP3
Продолжительность : 46 м.
Вид битрейта : Постоянный
Битрейт : 128 Кбит/сек
Каналы : 2 канала
Частота : 48,0 КГц
Метод сжатия : С потерями
Размер потока : 42,8 Мбайт (6%)
Выравнивание : Соединение по промежуткам
Продолжительность промежутка : 24 мс. (0,60 видеокадр)
Библиотека кодирования : LAME3.99r
Настройки программы : -m j -V 4 -q 9 -lowpass 17 -b 128

Внимание! Раздача ведётся путём добавления новых серий

Внимание! Раздача ведётся путём добавления новых серий; при каждом добавлении создаётся новый торрент.
Чтобы начать докачку новой серии, пользователям необходимо сделать следующее:
1. Остановить скачивание;
2. Удалить старый торрент у себя из клиента (старые серии удалять не надо);
3. Скачать новый торрент и запустить его у себя в клиенте вместо старого, при этом указать клиенту путь в старую папку куда и должно происходить скачивание новых серий. Ваш клиент при этом должен произвести хеширование (проверку) старой папки и будет докачивать только те серии, которых у вас ещё нет. Старые серии при этом не удаляются, а продолжают раздаваться! Eсли вы уже удалили старые серии, то предотвратить повторную закачку старых серий можно, отжав галочку в соответствующих местах при запуске нового торрента.

Скриншоты

[Цитировать]



Показать сообщения:    

Текущее время: 04-Дек 23:24

Часовой пояс: UTC + 3


Вы не можете начинать темы
Вы не можете отвечать на сообщения
Вы не можете редактировать свои сообщения
Вы не можете удалять свои сообщения
Вы не можете голосовать в опросах
Вы не можете прикреплять файлы к сообщениям
Вы не можете скачивать файлы

!ВНИМАНИЕ!
Сайт не предоставляет электронные версии произведений, а занимается лишь коллекционированием и каталогизацией ссылок, присылаемых и публикуемых на форуме нашими читателями. Если вы являетесь правообладателем какого-либо представленного материала и не желаете, чтобы ссылка на него находилась в нашем каталоге, свяжитесь с нами, и мы незамедлительно удалим ее. Файлы для обмена на трекере предоставлены пользователями сайта, и администрация не несет ответственности за их содержание. Просьба не заливать файлы, защищенные авторскими правами, а также файлы нелегального содержания!