[ Сегодня идет свободное скачивание без начисления Download ]


Статистика раздачи
Нет
 
   
 
Top  
 
 
Левша / Southpaw
«Преодолей судьбу»
Год выпуска: 2015
Страна: США
Жанр: драма, спорт, боевик, триллер
Продолжительность: 02:03:46
Перевод: Профессиональный (дублированный)[чистый звук]
Режиссер: Антуан Фукуа
В ролях: Джейк Джилленхол☆Jake Gyllenhaal (Billy Hope), Рэйчел МакАдамс☆Rachel McAdams (Maureen Hope), Форест Уитакер☆Forest Whitaker (Tick Wills), Уна Лоуренс☆Oona Laurence (Leila Hope), Фифти Сент☆50 Cent (Jordan Mains), Скайлан Брукс☆Skylan Brooks (Hoppy), Наоми Харрис☆Naomie Harris (Angela Rivera), Виктор Ортис☆Victor Ortiz (Ramone), Бо Напп☆Beau Knapp (Jon Jon), Мигель Гомес☆Miguel Gomez (Miguel «Magic» Escobar)

Описание: У боксера Билли Хоупа все было прекрасно: звание чемпиона, красавица-жена и любимая дочка. Но фортуна отворачивается от него: при трагических обстоятельствах погибает любимая жена, дисквалификация на ринге, нулевые доходы, суд лишает его родительских прав… Хоуп должен отстоять звание чемпиона и вернуть дочь. Есть ли у Хоупа шансы на победу? Все решит его знаменитый хук левой…
Бюджет: $30 000 000
Сборы в США: $48 599 879
Сборы в мире: + $18 460 987 = $67 060 866
Сборы в России: $889 840
Рейтинг MPAA: Лицам до 17 лет обязательно присутствие взрослого

Качество: WEB-DL 720p
Формат: MKV
Видео кодек: AVC
Аудио кодек: AC3
Видео: [email protected] (2.40:1), 23.976 fps, [email protected], 2 414 Kbps
Аудио #1: Rus AC3, 192 Kbps, 48.0 KHz, 2 ch
Аудио #2: Eng AC3, 192 Kbps, 48.0 KHz, 2 ch

Знаете ли Вы, что...

» Изначально композитором фильма должен был стать Гарри Грегсон-Уильямс. Он даже заявил в одном своем интервью в конце 2014 году, что уже приступил к написанию музыки. Однако вскоре после этого было объявлено, что композитором будет Джеймс Хорнер.
» Из-за небольшого бюджета у режиссера не было денег, чтобы заплатить Джеймсу Хорнеру за написание музыки к фильму. Однако Джеймсу настолько понравилась идея фильма, что он написал музыку бесплатно.
» Оригинальное название фильма — «Southpaw» относится к боксерской терминологии, означая стойку, которую чаще используют боксеры-левши.
» Первоначально проект рассматривался как неофициальное продолжение к фильму «8 миля» (2002) с Эминемом (который на самом деле является левшой) в главной роли. Однако в конечном итоге сценарий претерпел существенные изменения и от этой идеи отказались.
» Хотя Эминем не снялся в фильме из-за своей активной музыкальной жизни, он составил для «Левши» саундтрек и сам исполнил одну из песен – «Phenomenal».
» Лупита Нионго могла исполнить роль Анджелы Риверы, но ей пришлось покинуть проект из-за занятости в фильме «Звёздные войны: Пробуждение силы» (2015).
» Готовясь к своей роли, Джейк Джилленхол изучал боксерский стиль Мигеля Котто.
» Райан Гослинг, Брэдли Купер и Джереми Реннер рассматривались на главную роль в этом фильме.
» Сцены боксерских поединков в Лас-Вегасе и в Мэдисон-сквер-гарден были отсняты за две недели. Оба поединка на самом деле снимались в Индианском университете в Пенсильвании.

MediaInfo

General
Unique ID : 207988482310265369295028657816270751241 (0x9C791FE6E4A3DE6B82222AAEB0B74609)
Complete name : Southpaw.2015.D.WEB-DL.720p.mkv
Format : Matroska
Format version : Version 4 / Version 2
File size : 2.47 GiB
Duration : 2h 3mn
Overall bit rate mode : Variable
Overall bit rate : 2 855 Kbps
Encoded date : UTC 2010-02-22 21:41:31
Writing application : mkvmerge v5.8.0 ('No Sleep / Pillow') built on Nov 13 2012 19:43:22
Writing library : libebml v1.3.0 + libmatroska v1.4.0
Video
ID : 1
Format : AVC
Format/Info : Advanced Video Codec
Format profile : [email protected]
Format settings, CABAC : Yes
Format settings, ReFrames : 5 frames
Codec ID : V_MPEG4/ISO/AVC
Bit rate mode : Variable
Bit rate : 2 414 Kbps
Maximum bit rate : 3 750 Kbps
Width : 1 280 pixels
Height : 720 pixels
Display aspect ratio : 2.40:1
Frame rate mode : Variable
Original frame rate : 23.976 fps
Color space : YUV
Chroma subsampling : 4:2:0
Bit depth : 8 bits
Scan type : Progressive
Language : English
Default : Yes
Forced : No
Color primaries : BT.709
Transfer characteristics : BT.709
Matrix coefficients : BT.709
Audio #1
ID : 2
Format : AC-3
Format/Info : Audio Coding 3
Mode extension : CM (complete main)
Format settings, Endianness : Big
Codec ID : A_AC3
Duration : 2h 3mn
Bit rate mode : Constant
Bit rate : 192 Kbps
Channel(s) : 2 channels
Channel positions : Front: L R
Sampling rate : 48.0 KHz
Bit depth : 16 bits
Compression mode : Lossy
Stream size : 170 MiB (7%)
Language : Russian
Default : Yes
Forced : No
Audio #2
ID : 3
Format : AC-3
Format/Info : Audio Coding 3
Mode extension : CM (complete main)
Format settings, Endianness : Big
Codec ID : A_AC3
Duration : 2h 3mn
Bit rate mode : Constant
Bit rate : 192 Kbps
Channel(s) : 2 channels
Channel positions : Front: L R
Sampling rate : 48.0 KHz
Bit depth : 16 bits
Compression mode : Lossy
Stream size : 170 MiB (7%)
Language : English
Default : No
Forced : No

Скриншоты

[Цитировать]

Топик был перенесен из форума Новинки кинопроката в форум Драма
Henkok



Показать сообщения:    

Текущее время: 04-Дек 06:57

Часовой пояс: UTC + 3


Вы не можете начинать темы
Вы не можете отвечать на сообщения
Вы не можете редактировать свои сообщения
Вы не можете удалять свои сообщения
Вы не можете голосовать в опросах
Вы не можете прикреплять файлы к сообщениям
Вы не можете скачивать файлы

!ВНИМАНИЕ!
Сайт не предоставляет электронные версии произведений, а занимается лишь коллекционированием и каталогизацией ссылок, присылаемых и публикуемых на форуме нашими читателями. Если вы являетесь правообладателем какого-либо представленного материала и не желаете, чтобы ссылка на него находилась в нашем каталоге, свяжитесь с нами, и мы незамедлительно удалим ее. Файлы для обмена на трекере предоставлены пользователями сайта, и администрация не несет ответственности за их содержание. Просьба не заливать файлы, защищенные авторскими правами, а также файлы нелегального содержания!