[ Сегодня идет свободное скачивание без начисления Download ]


Статистика раздачи
Нет
 
   
 
Top  
 
 
Франкенштейн / Victor Frankenstein (2015) WEBRip - Производство: США / Davis Entertainment, TSG Entertainment, Twentieth Century Fox Film Corporation
Жанр: Фантастика, Драма
Режиссер: Пол МакГиган
Актеры: Джеймс МакЭвой, Дэниэл Рэдклифф, Джессика Браун Финдли, Эндрю Скотт, Фредди Фокс, Марк Гэтисс
Описание:
Новый взгляд на фантастическую историю Виктора Франкенштейна, на этот раз — с точки зрения его помощника Игоря. Однажды случай сводит горбуна с молодым и эксцентричным студентом медицинской академии Виктором Франкенштейном, который приходит в цирк, рассчитывая купить тела умерших зверей. Франкенштейна поражают медицинские познания горбуна и то, как ловко он может поставить сложный диагноз и сделать операцию с помощью подручных средств. Недолго думая, Франкенштейн помогает горбуну бежать из цирка, после чего укрывает его в своей квартире.
Виктор излечивает горбуна от недуга и предупреждает, что если кто-то вдруг будет интересоваться его личностью, то пусть горбун представлялся пропавшим соседом Франкенштейна, которого звали Игорь.
[kp]596985[/kp] [imdb]tt1976009[/imdb]
Дата мировой премьеры: 1 октября 2015
Дата премьеры в России: 3 декабря 2015, «Двадцатый Век Фокс СНГ»
Продолжительность: 00:02:02
Качество видео: WEBRip
Перевод: Дублированный
Видео: AVC, 1920x1080 (16:9), 23.976 fps, 18.0 Mbps (0.321 bit/pixel)
Аудио: AC-3, 48.0 KHz, 6 ch, 448 Kbps, CBR (Russian)

Mediainfo:

General
Unique ID                   : 228304781915197660023278708651577325802 (0xABC1E6CED8B6986093103EA4189438EA)
Complete name               : D:\VIDEO\Frankenstein_1080p_TRL.mkv
Format                      : Matroska
Format version              : Version 4 / Version 2
File size                   : 244 MiB
Duration                    : 2mn 2s
Overall bit rate            : 16.7 Mbps
Movie name                  : longboy for nnm
Encoded date                : UTC 2015-08-30 06:34:17
Writing application         : mkvmerge v8.3.0 ('Over the Horizon') 64bit
Writing library             : Lavf55.37.101
Attachements                : cover.jpg
Video
ID                          : 1
Format                      : AVC
Format/Info                 : Advanced Video Codec
Format profile              : Baseline@L4.1
Format settings, CABAC      : No
Format settings, ReFrames   : 1 frame
Codec ID                    : V_MPEG4/ISO/AVC
Duration                    : 2mn 2s
Bit rate                    : 16.0 Mbps
Nominal bit rate            : 18.0 Mbps
Width                       : 1 920 pixels
Height                      : 1 080 pixels
Display aspect ratio        : 16:9
Frame rate mode             : Constant
Frame rate                  : 23.976 fps
Color space                 : YUV
Chroma subsampling          : 4:2:0
Bit depth                   : 8 bits
Scan type                   : Progressive
Bits/(Pixel*Frame)          : 0.321
Stream size                 : 233 MiB (95%)
Writing library             : x264 core 119
Encoding settings           : cabac=0 / ref=1 / deblock=0:0:0 / analyse=0:0 / me=dia / subme=0 / psy=1 / psy_rd=1.00:0.00 / mixed_ref=0 / me_range=16 / chroma_me=1 / trellis=0 / 8x8dct=0 / cqm=0 / deadzone=21,11 / fast_pskip=1 / chroma_qp_offset=0 / threads=4 / sliced_threads=0 / nr=0 / decimate=1 / interlaced=0 / bluray_compat=0 / constrained_intra=0 / bframes=0 / weightp=0 / keyint=250 / keyint_min=23 / scenecut=0 / intra_refresh=0 / rc=abr / mbtree=0 / bitrate=18000 / ratetol=1.0 / qcomp=0.60 / qpmin=0 / qpmax=69 / qpstep=4 / ip_ratio=1.40 / aq=0
Default                     : Yes
Forced                      : No
HANDLER_NAME                : VideoHandler
DURATION                    : 00:02:02.289000000
NUMBER_OF_FRAMES            : 2932
NUMBER_OF_BYTES             : 248836129
_STATISTICS_WRITING_APP     : mkvmerge v8.3.0 ('Over the Horizon') 64bit
_STATISTICS_WRITING_DATE_UT : 2015-08-30 06:34:17
_STATISTICS_TAGS            : BPS DURATION NUMBER_OF_FRAMES NUMBER_OF_BYTES
Audio
ID                          : 2
Format                      : AC-3
Format/Info                 : Audio Coding 3
Mode extension              : CM (complete main)
Format settings, Endianness : Big
Codec ID                    : A_AC3
Duration                    : 2mn 2s
Bit rate mode               : Constant
Bit rate                    : 448 Kbps
Channel(s)                  : 6 channels
Channel positions           : Front: L C R, Side: L R, LFE
Sampling rate               : 48.0 KHz
Compression mode            : Lossy
Delay relative to video     : -5ms
Stream size                 : 6.53 MiB (3%)
Title                       : дубляж
Language                    : English
Default                     : Yes
Forced                      : No
Encoded date                : UTC 2015-08-18 09:42:27
HANDLER_NAME                : IsoMedia File Produced by Google, 5-11-2011
DURATION                    : 00:02:02.304000000
NUMBER_OF_FRAMES            : 3822
NUMBER_OF_BYTES             : 6849024
_STATISTICS_WRITING_APP     : mkvmerge v8.3.0 ('Over the Horizon') 64bit
_STATISTICS_WRITING_DATE_UT : 2015-08-30 06:34:17
_STATISTICS_TAGS            : BPS DURATION NUMBER_OF_FRAMES NUMBER_OF_BYTES
Скриншоты:

[Цитировать]



Показать сообщения:    

Текущее время: 10-Дек 13:53

Часовой пояс: UTC + 3


Вы не можете начинать темы
Вы не можете отвечать на сообщения
Вы не можете редактировать свои сообщения
Вы не можете удалять свои сообщения
Вы не можете голосовать в опросах
Вы не можете прикреплять файлы к сообщениям
Вы не можете скачивать файлы

!ВНИМАНИЕ!
Сайт не предоставляет электронные версии произведений, а занимается лишь коллекционированием и каталогизацией ссылок, присылаемых и публикуемых на форуме нашими читателями. Если вы являетесь правообладателем какого-либо представленного материала и не желаете, чтобы ссылка на него находилась в нашем каталоге, свяжитесь с нами, и мы незамедлительно удалим ее. Файлы для обмена на трекере предоставлены пользователями сайта, и администрация не несет ответственности за их содержание. Просьба не заливать файлы, защищенные авторскими правами, а также файлы нелегального содержания!