[ Сегодня идет свободное скачивание без начисления Download ]


Статистика раздачи
Нет
 
   
 
Top  
 
 
Electric Light Orchestra - Time (1981)-
Год: 1981
Страна-производитель диска: Holland
Производство: Jet Records
Номер по каталогу: JETLP 236
Жанр: Progressive Rock
Продолжительность: 00:43:58
Автор оцифровки: Bigbeer-Кодек: FLAC 2.0
Формат записи: 32/96
Формат раздачи: 24/96
Тип рипа: image+.cue-Треклист:
A1. Prologue (1:15)
A2. Twilight (3:38)
A3. Yours Truly, 2095 (3:16)
A4. Ticket to the Moon (4:07)
A5. The Way Life's Meant to Be (4:39)
A6. Another Heart Breaks (3:49)
B1. Rain Is Falling (3:54)
B2. From the End of the World (3:17)
B3. The Lights Go Down (3:33)
B4. Here Is the News (3:46)
B5. 21st Century Man (3:58)
B6. Hold On Tight (3:14)
B7. Epilogue (1:32)

Technical info:

Код класса состояния винила: EX
Устройство воспроизведения: Technics SL-1200MK3D
Головка звукоснимателя: Audio Technica AT150MLX
Предварительный усилитель: Cambridge Audio 651P
Межблочник: Oehlbach
АЦП: Asus Xonar Essence ST
Программа-оцифровщик: Sony SoundForge Pro 11.0
Обработка: удаление одиночных щелчков, fade in / out (Adobe Audition CC 7.0.1.5)

MI:

Общее
Полное имя                               : H:\VinylRip\Electric Light Orchestra - Time (1981)(VR Jet Records, JETLP 236, Holland)\Electric Light Orchestra - Time.flac
Формат                                   : FLAC
Формат/Информация                        : Free Lossless Audio Codec
Размер файла                             : 945 Мбайт
Продолжительность                        : 43 м.
Режим общего битрейта                    : Переменный
Общий поток                              : 3004 Кбит/сек
Альбом                                   : Time
Трек/Всего                               : 13
Исполнитель                              : Electric Light Orchestra
Продюсер                                 : Jet Records JET LP 236
Жанр                                     : Progressive Rock
Дата записи                              : 1981
Обложка                                  : Yes
Тип обложки                              : Cover (front)
MIME-тип обложки                         : image/jpeg
Примечание                               : rip by Bigbeer/Technics SL-1200MK3D/Audio Technica AT150MLX/Cambridge Audio 651P/Oehlbach/Asus Xonar Essence ST
CONTENTGROUP                             : Bigbeer
cuesheet                                 : REM GENRE Progressive Rock / REM DATE 1981 / REM DISCID JET LP 236 / REM COMMENT rip by Bigbeer/Technics SL-1200MK3D/Audio Technica AT150MLX/Cambridge Audio 651P/Oehlbach/Asus Xonar Essence ST / PERFORMER "Electric Light Orchestra" / TITLE "Time" / FILE "Electric Light Orchestra - Time.flac" WAVE /   TRACK 01 AUDIO /     TITLE "Prologue" /     INDEX 01 00:00:00 /   TRACK 02 AUDIO /     TITLE "Twilight" /     INDEX 01 01:15:06 /   TRACK 03 AUDIO /     TITLE "Yours Truly, 2095" /     INDEX 01 04:52:51 /   TRACK 04 AUDIO /     TITLE "Ticket to the Moon" /     INDEX 01 08:09:06 /   TRACK 05 AUDIO /     TITLE "The Way Life's Meant to Be" /     INDEX 01 12:16:23 /   TRACK 06 AUDIO /     TITLE "Another Heart Breaks" /     INDEX 01 16:55:17 /   TRACK 07 AUDIO /     TITLE "Rain Is Falling" /     INDEX 01 20:43:72 /   TRACK 08 AUDIO /     TITLE "From the End of the World" /     INDEX 01 24:38:14 /   TRACK 09 AUDIO /     TITLE "The Lights Go Down" /     INDEX 01 27:54:64 /   TRACK 10 AUDIO /     TITLE "Here Is the News" /     INDEX 01 31:27:71 /   TRACK 11 AUDIO /     TITLE "21st Century Man" /     INDEX 01 35:14:02 /   TRACK 12 AUDIO /     TITLE "Hold On Tight" /     INDEX 01 39:12:15 /   TRACK 13 AUDIO /     TITLE "Epilogue" /     INDEX 01 42:26:18
Аудио
Формат                                   : FLAC
Формат/Информация                        : Free Lossless Audio Codec
Продолжительность                        : 43 м.
Вид битрейта                             : Переменный
Битрейт                                  : 3004 Кбит/сек
Каналы                                   : 2 канала
Частота                                  : 96,0 КГц
Битовая глубина                          : 24 бит
Размер потока                            : 945 Мбайт (100%)
Библиотека кодирования                   : libFLAC 1.0.25 (UTC 2007-09-17)

Спектр, Уровень, АЧХ:

Dynamic Range Meter:

foobar2000 1.3.3 (cdpos.biz) / Замер динамического диапазона (DR) 1.1.1
Дата отчёта:    2015-08-30 19:19:40
--------------------------------------------------------------------------------
Анализ:   Electric Light Orchestra / Time
--------------------------------------------------------------------------------
DR         Пики         RMS           Продолжительность трека
--------------------------------------------------------------------------------
DR14      -5.07 дБ   -23.70 дБ      1:15 1-Prologue
DR12      -2.86 дБ   -16.42 дБ      3:38 2-Twilight
DR12      -3.90 дБ   -17.40 дБ      3:16 3-Yours Truly, 2095
DR12      -4.28 дБ   -19.67 дБ      4:07 4-Ticket to the Moon
DR12      -5.03 дБ   -18.76 дБ      4:39 5-The Way Life's Meant to Be
DR12      -6.13 дБ   -21.10 дБ      3:49 6-Another Heart Breaks
DR11      -6.11 дБ   -18.96 дБ      3:54 7-Rain Is Falling
DR13      -3.65 дБ   -18.55 дБ      3:17 8-From the End of the World
DR11      -6.24 дБ   -19.57 дБ      3:33 9-The Lights Go Down
DR12      -4.47 дБ   -18.82 дБ      3:46 10-Here Is the News
DR11      -6.51 дБ   -20.46 дБ      3:58 11-21st Century Man
DR11      -2.33 дБ   -17.95 дБ      3:14 12-Hold On Tight
DR10      -6.90 дБ   -19.62 дБ      1:32 13-Epilogue
--------------------------------------------------------------------------------
Количество треков:  13
Реальные значения DR:  DR12
Частота:      96000 Гц
Каналов:      2
Разрядность:     24
Битрейт:      3004 кбит/с
Кодек:      FLAC
================================================================================

Яблоки:

[Цитировать]

:az: :ay: :az: :ay: :az:

[Цитировать]



Показать сообщения:    

Текущее время: 11-Дек 09:11

Часовой пояс: UTC + 3


Вы не можете начинать темы
Вы не можете отвечать на сообщения
Вы не можете редактировать свои сообщения
Вы не можете удалять свои сообщения
Вы не можете голосовать в опросах
Вы не можете прикреплять файлы к сообщениям
Вы не можете скачивать файлы

!ВНИМАНИЕ!
Сайт не предоставляет электронные версии произведений, а занимается лишь коллекционированием и каталогизацией ссылок, присылаемых и публикуемых на форуме нашими читателями. Если вы являетесь правообладателем какого-либо представленного материала и не желаете, чтобы ссылка на него находилась в нашем каталоге, свяжитесь с нами, и мы незамедлительно удалим ее. Файлы для обмена на трекере предоставлены пользователями сайта, и администрация не несет ответственности за их содержание. Просьба не заливать файлы, защищенные авторскими правами, а также файлы нелегального содержания!