[ Сегодня идет свободное скачивание без начисления Download ]


Статистика раздачи
Нет
 
   
 
Top  
 
 
Пиф-паф / Bang Bang-=Даже если весь мир будет против тебя,
я буду тихо стоять за твоей спиной, и подавать тебе патроны!=-

Страна: Индия
Жанр: Боевик, мелодрама, комедия
Год выпуска: 2014
Продолжительность: 02:36:01-Перевод: Любительский (двухголосый закадровый) - DeadSno & den904
Субтитры: Есть (только песни)--Режиссер: Сиддхарт Ананд / Siddharth Anand-В ролях: Ритик Рошан, Катрина Кэйф, Джимми Шергилл, Дэнни Дензонгпа, Джавед Джеффри, Рон Смуренбург, Дипти Навал, Паван Мальхотра, Викрам Гокхале, Канвалджит Сингх, Пратик Диксит--Описание: Харлин Сахани – скромная и милая девушка, работающая секретарём в банке Шимлы. Её вполне устраивает спокойная и тихая жизнь вместе со своей бабушкой. Но однажды, она всерьёз задумывается о своём семейном положении и решает найти себе будущего мужа, зарегистрировавшись на сайте знакомств. На свидание приходит таинственный и чертовски обаятельный молодой человек, в кармане которого лежит национальное достояние Индии – легендарный бриллиант «Кохинур», о пропаже которого гремит весь мир. Откуда он у него? Кто этот парень? Какую тайну он в себе скрывает? По случайному стечению обстоятельств, скучная жизнь Харлин приобретает новый оборот, который насыщен пулями, перестрелками и разборками между мафиями…(с) Honey-- Сэмпл / Sample--Качество видео: DVDRip
Формат видео: AVI-Видео: 720x304 (2.37:1), 23.976 fps, XviD build 50 ~1312 kbps avg, 0.25 bit/pixel
Аудио: 48 kHz, AC3 Dolby Digital, 2/0 (L,R) ch, ~192 kbps
Субтитры: ASS (отдельным файлом)-

MI

General
Complete name : H:\DVDRip\[VO]\ПифПаф\ПифПаф.avi
Format : AVI
Format/Info : Audio Video Interleave
File size : 1.65 GiB
Duration : 2h 36mn
Overall bit rate : 1 514 Kbps
Writing application : VirtualDubModRus 1.5.10.2 (build 2542/release)
Writing library : VirtualDubMod build 2542/release
Video
ID : 0
Format : MPEG-4 Visual
Format profile : Advanced [email protected]
Format settings, BVOP : 2
Format settings, QPel : No
Format settings, GMC : No warppoints
Format settings, Matrix : Default (H.263)
Codec ID : XVID
Codec ID/Hint : XviD
Duration : 2h 36mn
Bit rate : 1 312 Kbps
Width : 720 pixels
Height : 304 pixels
Display aspect ratio : 2.35:1
Original display aspect ratio : 2.35:1
Frame rate : 23.976 fps
Color space : YUV
Chroma subsampling : 4:2:0
Bit depth : 8 bits
Scan type : Progressive
Compression mode : Lossy
Bits/(Pixel*Frame) : 0.250
Stream size : 1.43 GiB (87%)
Writing library : XviD 1.2.1 (UTC 2008-12-04)
Audio
ID : 1
Format : AC-3
Format/Info : Audio Coding 3
Mode extension : CM (complete main)
Format settings, Endianness : Big
Codec ID : 2000
Duration : 2h 36mn
Bit rate mode : Constant
Bit rate : 192 Kbps
Channel(s) : 2 channels
Channel positions : Front: L R
Sampling rate : 48.0 KHz
Bit depth : 16 bits
Compression mode : Lossy
Stream size : 214 MiB (13%)
Alignment : Split accross interleaves
Interleave, duration : 42 ms (1.00 video frame)
Interleave, preload duration : 500 ms

Скриншоты

[Цитировать]



Показать сообщения:    

Текущее время: 06-Дек 13:19

Часовой пояс: UTC + 3


Вы не можете начинать темы
Вы не можете отвечать на сообщения
Вы не можете редактировать свои сообщения
Вы не можете удалять свои сообщения
Вы не можете голосовать в опросах
Вы не можете прикреплять файлы к сообщениям
Вы не можете скачивать файлы

!ВНИМАНИЕ!
Сайт не предоставляет электронные версии произведений, а занимается лишь коллекционированием и каталогизацией ссылок, присылаемых и публикуемых на форуме нашими читателями. Если вы являетесь правообладателем какого-либо представленного материала и не желаете, чтобы ссылка на него находилась в нашем каталоге, свяжитесь с нами, и мы незамедлительно удалим ее. Файлы для обмена на трекере предоставлены пользователями сайта, и администрация не несет ответственности за их содержание. Просьба не заливать файлы, защищенные авторскими правами, а также файлы нелегального содержания!