[ Сегодня идет свободное скачивание без начисления Download ]


Статистика раздачи
Нет
 
   
 
Top  
 
 
Властелин колец: Кинотрилогия / The Lord of the Rings: The Motion Picture Trilogy [Extended Edition]

Властелин колец: Братство кольца / The Lord of the Rings: The Fellowship of the Ring (2001) [Extended Edition]

Властелин колец: Братство кольца / The Lord of the Rings: The Fellowship of the Ring (2001) [Extended Edition]

-Страна: США, Новая Зеландия
Жанр: Боевик, фэнтези, приключения.
Год выпуска: 2001
Продолжительность: 03:48:19-Перевод: Профессиональный (многоголосый закадровый)
Формат субтитров: ass, srt, pgs
Оригинальная аудиодорожка: Английская-Режиссер: Питер Джексон / Peter Jackson-В ролях: Элайджа Вуд, Шон Эстин, Вигго Мортенсен, Иэн МакКеллен, Доминик Монахэн, Билли Бойд, Шон Бин, Орландо Блум, Джон Рис-Дэвис, Кристофер Ли-Описание: Сказания о Средиземье — это хроника Великой войны за Кольцо, войны, длившейся не одну тысячу лет. Тот, кто владел Кольцом, получал власть над всеми живыми тварями, но был обязан служить злу. Тихая деревня, где живут хоббиты. Волшебник Гэндальф, придя на 111-й день рождения к своему старому другу Бильбо Бэггинсу, начинает вести разговор о кольце, которое Бильбо нашел много лет назад. Это кольцо принадлежало когда-то темному властителю Средиземья Саурону, и оно дает большую власть своему обладателю. Теперь Саурон хочет вернуть себе власть над Средиземьем. Бильбо отдает найденное кольцо своему племяннику Фродо, который пытается научиться справляться с тем страшным могуществом, которое дает ему кольцо...-Тип релиза: BDRemux
Контейнер: MKV
Видео: MPEG-4 AVC / 29853 kbps / 1920х1080 / 23,976 fps / High Profile 4.1
Аудио 1: Русский / DTS-HD MA / 4767 kbps / 6.1 / 48 kHz / 24-bit (DTS Core: 6.1-ES / 48 kHz / 1509 kbps / 24-bit) (многоголосый Позитив мм)
Аудио 2: Русский / Dolby Digital / 5.1 / 48 kHz / 448 kbps (дубляж + вставки Позитив мм на расширенные места)
Аудио 3: Русский / DTS-HD HR / 2559 kbps / 6.1 / 48 kHz / 24-bit (DTS Core: 6.1-ES / 48 kHz / 1509 kbps / 24-bit) (многоголосый SRI)
Аудио 4: Русский / DTS-ES / 1536 kbps / 6.1 / 48 kHz (Гаврилов)
Аудио 5: Русский / DTS-ES / 1536 kbps / 6.1 / 48 kHz (Рябов)
Аудио 6: Английский / DTS-HD MA / 4742 kbps / 6.1 / 48 kHz / 24-bit (DTS Core: 6.1-ES / 48 kHz / 1509 kbps / 24-bit)
Аудио 7: Английский / Dolby Digital / 2.0 / 48 kHz / 192 kbps (Commentary with Director & Writers)
Аудио 8: Английский / Dolby Digital / 2.0 / 48 kHz / 192 kbps (Commentary with Design Team)
Аудио 9: Английский / Dolby Digital / 2.0 / 48 kHz / 192 kbps (Commentary with Production and Post Production)
Аудио 10: Английский / Dolby Digital / 2.0 / 48 kHz / 192 kbps (Commentary with Cast)
Чаптеры: есть

MediaInfo

Complete name                    : The.Lord.of.the.Rings-The Fellowship.of.the.Ring.2001.Blu-ray.Extended.1080p.AVC.Rus.Eng.mkv
Format                           : Matroska
File size                        : 73.7 GiB
Duration                         : 3h 48mn
Overall bit rate                 : 46.2 Mbps
Movie name                       : HANSMER
Encoded date                     : UTC 2011-07-31 16:16:53
Writing application              : mkvmerge v4.9.1 ('Ich will') сборка от Jul 11 2011 23:53:15
Writing library                  : libebml v1.2.1 + libmatroska v1.1.1
Cover                            : Yes / Yes / Yes
Video
ID                               : 1
Format                           : AVC
Format/Info                      : Advanced Video Codec
Format profile                   : High@L4.1
Format settings, CABAC           : Yes
Format settings, ReFrames        : 2 frames
Codec ID                         : V_MPEG4/ISO/AVC
Duration                         : 3h 48mn
Bit rate mode                    : Variable
Bit rate                         : 36.5 Mbps
Width                            : 1 920 pixels
Height                           : 1 080 pixels
Display aspect ratio             : 16:9
Frame rate                       : 23.976 fps
Color space                      : YUV
Chroma subsampling               : 4:2:0
Bit depth                        : 8 bits
Scan type                        : Progressive
Bits/(Pixel*Frame)               : 0.735
Stream size                      : 58.2 GiB (79%)
Title                            : 29853 kbps
Language                         : English
Audio #1
ID                               : 2
Format                           : DTS
Format/Info                      : Digital Theater Systems
Format profile                   : MA / Core
Codec ID                         : A_DTS
Duration                         : 3h 48mn
Bit rate mode                    : Variable
Bit rate                         : 1 510 Kbps
Channel(s)                       : 7 channels / 6 channels
Channel positions                : Front: L C R, Side: L R, Back: C, LFE / Front: L C R, Side: L R, LFE
Sampling rate                    : 48.0 KHz
Bit depth                        : 24 bits
Compression mode                 : Lossless / Lossy
Stream size                      : 2.41 GiB (3%)
Title                            : Pozitiv MM /  DTS-HD MA 6.1 @ 4767 kbps
Language                         : Russian
Audio #2
ID                               : 3
Format                           : AC-3
Format/Info                      : Audio Coding 3
Mode extension                   : CM (complete main)
Codec ID                         : A_AC3
Duration                         : 3h 48mn
Bit rate mode                    : Constant
Bit rate                         : 448 Kbps
Channel(s)                       : 6 channels
Channel positions                : Front: L C R, Side: L R, LFE
Sampling rate                    : 48.0 KHz
Bit depth                        : 16 bits
Compression mode                 : Lossy
Stream size                      : 732 MiB (1%)
Title                            : Dub + Pozitiv MM
Language                         : Russian
Audio #3
ID                               : 4
Format                           : DTS
Format/Info                      : Digital Theater Systems
Format profile                   : HRA / Core
Codec ID                         : A_DTS
Duration                         : 3h 48mn
Bit rate mode                    : Constant
Bit rate                         : 1 510 Kbps
Channel(s)                       : 7 channels / 6 channels
Channel positions                : Front: L C R, Side: L R, Back: C, LFE / Front: L C R, Side: L R, LFE
Sampling rate                    : 48.0 KHz
Bit depth                        : 24 bits
Compression mode                 : Lossy
Stream size                      : 2.41 GiB (3%)
Title                            : SRI /  DTS-HD HR 6.1 @ 2559 kbps
Language                         : Russian
Audio #4
ID                               : 5
Format                           : DTS
Format/Info                      : Digital Theater Systems
Format profile                   : ES
Codec ID                         : A_DTS
Duration                         : 3h 48mn
Bit rate mode                    : Constant
Bit rate                         : 1 510 Kbps
Channel(s)                       : 7 channels / 6 channels
Channel positions                : Front: L C R, Side: L R, Back: C, LFE / Front: L C R, Side: L R, LFE
Sampling rate                    : 48.0 KHz
Bit depth                        : 24 bits
Compression mode                 : Lossy
Stream size                      : 2.41 GiB (3%)
Title                            : Gavrilov
Language                         : Russian
Audio #5
ID                               : 6
Format                           : DTS
Format/Info                      : Digital Theater Systems
Format profile                   : ES
Codec ID                         : A_DTS
Duration                         : 3h 48mn
Bit rate mode                    : Constant
Bit rate                         : 1 510 Kbps
Channel(s)                       : 7 channels / 6 channels
Channel positions                : Front: L C R, Side: L R, Back: C, LFE / Front: L C R, Side: L R, LFE
Sampling rate                    : 48.0 KHz
Bit depth                        : 24 bits
Compression mode                 : Lossy
Stream size                      : 2.41 GiB (3%)
Title                            : Rjabov
Language                         : Russian
Audio #6
ID                               : 7
Format                           : DTS
Format/Info                      : Digital Theater Systems
Format profile                   : MA / Core
Codec ID                         : A_DTS
Duration                         : 3h 48mn
Bit rate mode                    : Variable
Bit rate                         : 1 510 Kbps
Channel(s)                       : 7 channels / 6 channels
Channel positions                : Front: L C R, Side: L R, Back: C, LFE / Front: L C R, Side: L R, LFE
Sampling rate                    : 48.0 KHz
Bit depth                        : 24 bits
Compression mode                 : Lossless / Lossy
Stream size                      : 2.41 GiB (3%)
Title                            : DTS-HD MA 6.1 @ 4742 kbps
Language                         : English
Audio #7
ID                               : 8
Format                           : AC-3
Format/Info                      : Audio Coding 3
Format profile                   : Dolby Digital
Mode extension                   : CM (complete main)
Codec ID                         : A_AC3
Duration                         : 3h 48mn
Bit rate mode                    : Constant
Bit rate                         : 192 Kbps
Channel(s)                       : 2 channels
Channel positions                : Front: L R
Sampling rate                    : 48.0 KHz
Bit depth                        : 16 bits
Compression mode                 : Lossy
Stream size                      : 314 MiB (0%)
Title                            : Commentary with Director & Writers
Language                         : English
Audio #8
ID                               : 9
Format                           : AC-3
Format/Info                      : Audio Coding 3
Format profile                   : Dolby Digital
Mode extension                   : CM (complete main)
Codec ID                         : A_AC3
Duration                         : 3h 48mn
Bit rate mode                    : Constant
Bit rate                         : 192 Kbps
Channel(s)                       : 2 channels
Channel positions                : Front: L R
Sampling rate                    : 48.0 KHz
Bit depth                        : 16 bits
Compression mode                 : Lossy
Stream size                      : 314 MiB (0%)
Title                            : Commentary with Design Team
Language                         : English
Audio #9
ID                               : 10
Format                           : AC-3
Format/Info                      : Audio Coding 3
Format profile                   : Dolby Digital
Mode extension                   : CM (complete main)
Codec ID                         : A_AC3
Duration                         : 3h 48mn
Bit rate mode                    : Constant
Bit rate                         : 192 Kbps
Channel(s)                       : 2 channels
Channel positions                : Front: L R
Sampling rate                    : 48.0 KHz
Bit depth                        : 16 bits
Compression mode                 : Lossy
Stream size                      : 314 MiB (0%)
Title                            : Commentary with Production and Post Production
Language                         : English
Audio #10
ID                               : 11
Format                           : AC-3
Format/Info                      : Audio Coding 3
Format profile                   : Dolby Digital
Mode extension                   : CM (complete main)
Codec ID                         : A_AC3
Duration                         : 3h 48mn
Bit rate mode                    : Constant
Bit rate                         : 192 Kbps
Channel(s)                       : 2 channels
Channel positions                : Front: L R
Sampling rate                    : 48.0 KHz
Bit depth                        : 16 bits
Compression mode                 : Lossy
Stream size                      : 314 MiB (0%)
Title                            : Commentary with Cast
Language                         : English
Text #1
ID                               : 12
Format                           : ASS
Codec ID                         : S_TEXT/ASS
Codec ID/Info                    : Advanced Sub Station Alpha
Compression mode                 : Lossless
Title                            : Forced Pozitiv MM
Language                         : Russian
Text #2
ID                               : 13
Format                           : UTF-8
Codec ID                         : S_TEXT/UTF8
Codec ID/Info                    : UTF-8 Plain Text
Title                            : Pozitiv MM
Language                         : Russian
Text #3
ID                               : 14
Format                           : UTF-8
Codec ID                         : S_TEXT/UTF8
Codec ID/Info                    : UTF-8 Plain Text
Title                            : Henneth-annun
Language                         : Russian
Text #4
ID                               : 15
Format                           : UTF-8
Codec ID                         : S_TEXT/UTF8
Codec ID/Info                    : UTF-8 Plain Text
Language                         : Ukrainian
Text #5
ID                               : 16
Format                           : ASS
Codec ID                         : S_TEXT/ASS
Codec ID/Info                    : Advanced Sub Station Alpha
Compression mode                 : Lossless
Title                            : Forsed
Language                         : English
Text #6
ID                               : 17
Format                           : ASS
Codec ID                         : S_TEXT/ASS
Codec ID/Info                    : Advanced Sub Station Alpha
Compression mode                 : Lossless
Language                         : English
Text #7
ID                               : 18
Format                           : PGS
Codec ID                         : S_HDMV/PGS
Codec ID/Info                    : The same subtitle format used on BDs/HD-DVDs
Title                            : PGS Forced Pozitiv MM
Language                         : Russian
Text #8
ID                               : 19
Format                           : PGS
Codec ID                         : S_HDMV/PGS
Codec ID/Info                    : The same subtitle format used on BDs/HD-DVDs
Title                            : PGS Pozitiv MM
Language                         : Russian
Text #9
ID                               : 20
Format                           : PGS
Codec ID                         : S_HDMV/PGS
Codec ID/Info                    : The same subtitle format used on BDs/HD-DVDs
Title                            : PGS Forced
Language                         : English
Text #10
ID                               : 21
Format                           : PGS
Codec ID                         : S_HDMV/PGS
Codec ID/Info                    : The same subtitle format used on BDs/HD-DVDs
Title                            : PGS SDH
Language                         : English
Menu
00:00:00.000                     : en: 1. Prologue: One Ring To Rule Them All...
00:07:36.790                     : en: 2. Concerning Hobbits
00:10:35.552                     : en: 3. The Shire
00:15:39.856                     : en: 4. Very Old Friends
00:19:58.489                     : en: 5. A Long-expected Party
00:25:32.614                     : en: 6. Farewell Dear Bilbo
00:29:57.379                     : en: 7. Keep It Secret, Keep It Safe
00:32:10.679                     : en: 8. The Account Of Isildur
00:34:51.798                     : en: 9. At The Green Dragon
00:36:18.176                     : en:10. The Shadow of the Past
00:45:04.160                     : en:11. The Passing of the Elves
00:46:44.301                     : en:12. Saruman The White
00:51:21.412                     : en:13. A Short Cut to Mushrooms
00:55:12.434                     : en:14. Bucklebury Ferry
00:57:30.072                     : en:15. At the Sign of The Prancing Pony
01:03:31.516                     : en:16. The Nazgul
01:07:16.115                     : en:17. The Midgewater Marshes
01:08:53.588                     : en:18. The Spoiling Of Isengard
01:10:35.940                     : en:19. A Knife in the Dark
01:15:15.386                     : en:20. The Caverns of Isengard
01:17:46.620                     : en:21. Flight to the Ford
01:24:11.546                     : en:22. Rivendell
01:26:12.501                     : en:23. Many Meetings
01:29:41.585                     : en:24. The Fate of the Ring
01:33:14.672                     : en:25. The Sword That Was Broken
01:35:54.082                     : en:26. The Evenstar
01:37:32.972                     : en:27. The Council of Elrond
01:45:45.000                     : en:28. Gilraen's Memorial
01:46:59.826                     : en:29. Bilbo's Gifts
01:48:43.221                     : en:30. The Departure of the Fellowship
01:50:00.631                     : en:31. The Ring Goes South
01:53:06.442                     : en:32. The Pass of Caradhras
01:57:52.728                     : en:33. Moria
02:04:18.113                     : en:34. A Journey in the Dark
02:10:48.461                     : en:35. Balin's Tomb
02:20:13.192                     : en:36. The Bridge of Khazad-Dum
02:29:54.648                     : en:37. Lothlorien
02:33:07.299                     : en:38. Caras Galadhorn
02:40:24.319                     : en:39. The Mirror of Galadriel
02:46:04.325                     : en:40. The Fighting Uruk-Hai
02:47:45.676                     : en:41. Farewell to Lorien
02:53:08.207                     : en:42. The Great River
02:58:00.457                     : en:43. Parth Galen
03:04:28.219                     : en:44. The Breaking of the Fellowship
03:11:44.155                     : en:45. The Departure of Boromir
03:14:26.484                     : en:46. The Road Goes Ever On
03:20:44.653                     : en:47. Credits
03:28:25.155                     : en:48. Official Fan Club Credits

Властелин колец: Две крепости / The Lord of the Rings: The Two Towers (2002) [Extended Edition]

Властелин колец: Две крепости / The Lord of the Rings: The Two Towers (2002) [Extended Edition]

-Страна: США, Новая Зеландия
Жанр: Боевик, фэнтези, приключения.
Год выпуска: 2002
Продолжительность: 03:55:31-Перевод: Профессиональный (многоголосый закадровый)
Формат субтитров: ass, srt, pgs
Оригинальная аудиодорожка: Английская-Режиссер: Питер Джексон / Peter Jackson-В ролях: Элайджа Вуд, Шон Эстин, Вигго Мортенсен, Иэн МакКеллен, Доминик Монахэн, Билли Бойд, Шон Бин, Орландо Блум, Джон Рис-Дэвис, Кристофер Ли-Описание: Братство распалось, но Кольцо Всевластья должно быть уничтожено. Фродо и Сэм вынуждены доверить свои жизни Голлуму, который взялся провести их к вратам Мордора. Громадная Армия Сарумана приближается: члены братства и их союзники готовы принять бой. Битва за Средиземье продолжается.-Тип релиза: BDRemux
Контейнер: MKV
Видео: MPEG-4 AVC / 29880 kbps / 1920х1080 / 23,976 fps / High Profile 4.1
Аудио 1: Русский / DTS-HD MA / 4501 kbps / 6.1 / 48 kHz / 24-bit (DTS Core: 6.1-ES / 48 kHz / 1509 kbps / 24-bit) (многоголосый Позитив мм)
Аудио 2: Русский / Dolby Digital / 5.1 / 48 kHz / 448 kbps (дубляж + вставки Позитив мм на расширенные места)
Аудио 3: Русский / DTS-HD HR / 2559 kbps / 6.1 / 48 kHz / 24-bit (DTS Core: 6.1-ES / 48 kHz / 1509 kbps / 24-bit) (многоголосый SRI)
Аудио 4: Русский / DTS-ES / 1536 kbps / 6.1 / 48 kHz (Гаврилов)
Аудио 5: Русский / DTS-ES / 1536 kbps / 6.1 / 48 kHz (Рябов)
Аудио 6: Английский / DTS-HD MA / 4478 kbps / 6.1 / 48 kHz / 24-bit (DTS Core: 6.1-ES / 48 kHz / 1509 kbps / 24-bit)
Аудио 7: Английский / Dolby Digital / 2.0 / 48 kHz / 192 kbps (Commentary with Director & Writers)
Аудио 8: Английский / Dolby Digital / 2.0 / 48 kHz / 192 kbps (Commentary with Design Team)
Аудио 9: Английский / Dolby Digital / 2.0 / 48 kHz / 192 kbps (Commentary with Production and Post Production)
Аудио 10: Английский / Dolby Digital / 2.0 / 48 kHz / 192 kbps (Commentary with Cast)
Чаптеры: есть

MediaInfo

Complete name                    : The.Lord.of.the.Rings-The.Two.Towers.2002.Blu-ray.Extended.1080p.AVC.Rus.Eng.mkv
Format                           : Matroska
File size                        : 75.2 GiB
Duration                         : 3h 55mn
Overall bit rate                 : 45.7 Mbps
Movie name                       : HANSMER
Encoded date                     : UTC 2011-07-31 23:24:38
Writing application              : mkvmerge v4.9.1 ('Ich will') сборка от Jul 11 2011 23:53:15
Writing library                  : libebml v1.2.1 + libmatroska v1.1.1
Cover                            : Yes / Yes / Yes
Video
ID                               : 1
Format                           : AVC
Format/Info                      : Advanced Video Codec
Format profile                   : High@L4.1
Format settings, CABAC           : Yes
Format settings, ReFrames        : 2 frames
Codec ID                         : V_MPEG4/ISO/AVC
Duration                         : 3h 55mn
Bit rate mode                    : Variable
Bit rate                         : 36.0 Mbps
Width                            : 1 920 pixels
Height                           : 1 080 pixels
Display aspect ratio             : 16:9
Frame rate                       : 23.976 fps
Color space                      : YUV
Chroma subsampling               : 4:2:0
Bit depth                        : 8 bits
Scan type                        : Progressive
Bits/(Pixel*Frame)               : 0.725
Stream size                      : 59.3 GiB (79%)
Title                            : 29880 kbps
Language                         : English
Audio #1
ID                               : 2
Format                           : DTS
Format/Info                      : Digital Theater Systems
Format profile                   : MA / Core
Codec ID                         : A_DTS
Duration                         : 3h 55mn
Bit rate mode                    : Variable
Bit rate                         : 1 510 Kbps
Channel(s)                       : 7 channels / 6 channels
Channel positions                : Front: L C R, Side: L R, Back: C, LFE / Front: L C R, Side: L R, LFE
Sampling rate                    : 48.0 KHz
Bit depth                        : 24 bits
Compression mode                 : Lossless / Lossy
Stream size                      : 2.48 GiB (3%)
Title                            : Pozitiv MM /  DTS-HD MA 6.1 @ 4501 kbps
Language                         : Russian
Audio #2
ID                               : 3
Format                           : AC-3
Format/Info                      : Audio Coding 3
Mode extension                   : CM (complete main)
Codec ID                         : A_AC3
Duration                         : 3h 55mn
Bit rate mode                    : Constant
Bit rate                         : 448 Kbps
Channel(s)                       : 6 channels
Channel positions                : Front: L C R, Side: L R, LFE
Sampling rate                    : 48.0 KHz
Bit depth                        : 16 bits
Compression mode                 : Lossy
Stream size                      : 755 MiB (1%)
Title                            : Dub + Pozitiv MM
Language                         : Russian
Audio #3
ID                               : 4
Format                           : DTS
Format/Info                      : Digital Theater Systems
Format profile                   : HRA / Core
Codec ID                         : A_DTS
Duration                         : 3h 55mn
Bit rate mode                    : Constant
Bit rate                         : 1 510 Kbps
Channel(s)                       : 7 channels / 6 channels
Channel positions                : Front: L C R, Side: L R, Back: C, LFE / Front: L C R, Side: L R, LFE
Sampling rate                    : 48.0 KHz
Bit depth                        : 24 bits
Compression mode                 : Lossy
Stream size                      : 2.48 GiB (3%)
Title                            : SRI /  DTS-HD HR 6.1 @ 2559 kbps
Language                         : Russian
Audio #4
ID                               : 5
Format                           : DTS
Format/Info                      : Digital Theater Systems
Format profile                   : ES
Codec ID                         : A_DTS
Duration                         : 3h 55mn
Bit rate mode                    : Constant
Bit rate                         : 1 510 Kbps
Channel(s)                       : 7 channels / 6 channels
Channel positions                : Front: L C R, Side: L R, Back: C, LFE / Front: L C R, Side: L R, LFE
Sampling rate                    : 48.0 KHz
Bit depth                        : 24 bits
Compression mode                 : Lossy
Stream size                      : 2.48 GiB (3%)
Title                            : Gavrilov
Language                         : Russian
Audio #5
ID                               : 6
Format                           : DTS
Format/Info                      : Digital Theater Systems
Format profile                   : ES
Codec ID                         : A_DTS
Duration                         : 3h 55mn
Bit rate mode                    : Constant
Bit rate                         : 1 510 Kbps
Channel(s)                       : 7 channels / 6 channels
Channel positions                : Front: L C R, Side: L R, Back: C, LFE / Front: L C R, Side: L R, LFE
Sampling rate                    : 48.0 KHz
Bit depth                        : 24 bits
Compression mode                 : Lossy
Stream size                      : 2.48 GiB (3%)
Title                            : Rjabov
Language                         : Russian
Audio #6
ID                               : 7
Format                           : DTS
Format/Info                      : Digital Theater Systems
Format profile                   : MA / Core
Codec ID                         : A_DTS
Duration                         : 3h 55mn
Bit rate mode                    : Variable
Bit rate                         : 1 510 Kbps
Channel(s)                       : 7 channels / 6 channels
Channel positions                : Front: L C R, Side: L R, Back: C, LFE / Front: L C R, Side: L R, LFE
Sampling rate                    : 48.0 KHz
Bit depth                        : 24 bits
Compression mode                 : Lossless / Lossy
Stream size                      : 2.48 GiB (3%)
Title                            : DTS-HD MA 6.1 @ 4478 kbps
Language                         : English
Audio #7
ID                               : 8
Format                           : AC-3
Format/Info                      : Audio Coding 3
Format profile                   : Dolby Digital
Mode extension                   : CM (complete main)
Codec ID                         : A_AC3
Duration                         : 3h 55mn
Bit rate mode                    : Constant
Bit rate                         : 192 Kbps
Channel(s)                       : 2 channels
Channel positions                : Front: L R
Sampling rate                    : 48.0 KHz
Bit depth                        : 16 bits
Compression mode                 : Lossy
Stream size                      : 323 MiB (0%)
Title                            : Commentary with Director & Writers
Language                         : English
Audio #8
ID                               : 9
Format                           : AC-3
Format/Info                      : Audio Coding 3
Format profile                   : Dolby Digital
Mode extension                   : CM (complete main)
Codec ID                         : A_AC3
Duration                         : 3h 55mn
Bit rate mode                    : Constant
Bit rate                         : 192 Kbps
Channel(s)                       : 2 channels
Channel positions                : Front: L R
Sampling rate                    : 48.0 KHz
Bit depth                        : 16 bits
Compression mode                 : Lossy
Stream size                      : 323 MiB (0%)
Title                            : Commentary with Design Team
Language                         : English
Audio #9
ID                               : 10
Format                           : AC-3
Format/Info                      : Audio Coding 3
Format profile                   : Dolby Digital
Mode extension                   : CM (complete main)
Codec ID                         : A_AC3
Duration                         : 3h 55mn
Bit rate mode                    : Constant
Bit rate                         : 192 Kbps
Channel(s)                       : 2 channels
Channel positions                : Front: L R
Sampling rate                    : 48.0 KHz
Bit depth                        : 16 bits
Compression mode                 : Lossy
Stream size                      : 323 MiB (0%)
Title                            : Commentary with Production and Post Production
Language                         : English
Audio #10
ID                               : 11
Format                           : AC-3
Format/Info                      : Audio Coding 3
Format profile                   : Dolby Digital
Mode extension                   : CM (complete main)
Codec ID                         : A_AC3
Duration                         : 3h 55mn
Bit rate mode                    : Constant
Bit rate                         : 192 Kbps
Channel(s)                       : 2 channels
Channel positions                : Front: L R
Sampling rate                    : 48.0 KHz
Bit depth                        : 16 bits
Compression mode                 : Lossy
Stream size                      : 323 MiB (0%)
Title                            : Commentary with Cast
Language                         : English
Text #1
ID                               : 12
Format                           : ASS
Codec ID                         : S_TEXT/ASS
Codec ID/Info                    : Advanced Sub Station Alpha
Compression mode                 : Lossless
Title                            : Forced Pozitiv MM
Language                         : Russian
Text #2
ID                               : 13
Format                           : UTF-8
Codec ID                         : S_TEXT/UTF8
Codec ID/Info                    : UTF-8 Plain Text
Title                            : Pozitiv MM
Language                         : Russian
Text #3
ID                               : 14
Format                           : UTF-8
Codec ID                         : S_TEXT/UTF8
Codec ID/Info                    : UTF-8 Plain Text
Title                            : Henneth-annun
Language                         : Russian
Text #4
ID                               : 15
Format                           : UTF-8
Codec ID                         : S_TEXT/UTF8
Codec ID/Info                    : UTF-8 Plain Text
Language                         : Ukrainian
Text #5
ID                               : 16
Format                           : ASS
Codec ID                         : S_TEXT/ASS
Codec ID/Info                    : Advanced Sub Station Alpha
Compression mode                 : Lossless
Title                            : Forsed
Language                         : English
Text #6
ID                               : 17
Format                           : ASS
Codec ID                         : S_TEXT/ASS
Codec ID/Info                    : Advanced Sub Station Alpha
Compression mode                 : Lossless
Language                         : English
Text #7
ID                               : 18
Format                           : PGS
Codec ID                         : S_HDMV/PGS
Codec ID/Info                    : The same subtitle format used on BDs/HD-DVDs
Title                            : PGS Forced Pozitiv MM
Language                         : Russian
Text #8
ID                               : 19
Format                           : PGS
Codec ID                         : S_HDMV/PGS
Codec ID/Info                    : The same subtitle format used on BDs/HD-DVDs
Title                            : PGS Pozitiv MM
Language                         : Russian
Text #9
ID                               : 20
Format                           : PGS
Codec ID                         : S_HDMV/PGS
Codec ID/Info                    : The same subtitle format used on BDs/HD-DVDs
Title                            : PGS Forced
Language                         : English
Text #10
ID                               : 21
Format                           : PGS
Codec ID                         : S_HDMV/PGS
Codec ID/Info                    : The same subtitle format used on BDs/HD-DVDs
Title                            : PGS SDH
Language                         : English
Menu
00:00:00.000                     : en: 1. The Foundations of Stone
00:04:08.748                     : en: 2. Elven Rope
00:06:10.829                     : en: 3. The Taming of Smeagol
00:14:44.967                     : en: 4. The Uruk-hai
00:17:06.609                     : en: 5. The Three Hunters
00:19:17.948                     : en: 6. The Burning of the Westfold
00:23:07.094                     : en: 7. Massacre at the Fords of Isen
00:23:58.312                     : en: 8. The Banishment of omer
00:27:09.044                     : en: 9. On the Trail of the Uruk-hai
00:28:03.181                     : en:10. Night Camp at Fangorn
00:31:38.230                     : en:11. The Riders of Rohan
00:35:45.518                     : en:12. The Fate of Merry and Pippin
00:38:17.879                     : en:13. Treebeard
00:41:47.797                     : en:14. The Passage of the Marshes
00:50:49.755                     : en:15. The White Rider
00:58:19.413                     : en:16. The Song of the Entwives
01:00:40.178                     : en:17. The Heir of Numenor
01:02:48.306                     : en:18. The Black Gate is Closed
01:08:05.999                     : en:19. Ent Draft
01:12:41.732                     : en:20. The King of the Golden Hall
01:24:17.344                     : en:21. The Funeral of Theodred
01:25:41.636                     : en:22. Simbelmyne on the Burial Mounds
01:27:34.332                     : en:23. The King's Decision
01:30:45.523                     : en:24. Brego
01:32:30.587                     : en:25. The Ring of Barahir
01:34:31.040                     : en:26. A Daughter of Kings
01:35:57.043                     : en:27. Exodus from Edoras
01:37:02.316                     : en:28. The Forests of Ithilien
01:38:43.960                     : en:29. Gollum and Smeagol
01:41:14.819                     : en:30. Of Herbs and Stewed Rabbit
01:46:40.000                     : en:31. Dwarf Women
01:47:22.793                     : en:32. One of the Dunedain
01:49:52.651                     : en:33. The Evenstar
01:54:59.207                     : en:34. The Wolves of Isengard
02:01:37.396                     : en:35. Helm's Deep
02:04:17.515                     : en:36. Isengard Unleashed
02:06:53.963                     : en:37. The Grace of the Valar
02:08:31.519                     : en:38. Arwen's Fate
02:12:14.283                     : en:39. The Story Foreseen from Lorien
02:14:40.262                     : en:40. The Window on the West
02:18:29.866                     : en:41. Sons of the Steward
02:23:09.437                     : en:42. The Forbidden Pool
02:30:31.128                     : en:43. Aragorn's Return
02:36:04.378                     : en:44. Entmoot
02:37:24.250                     : en:45. The Glittering Caves
02:40:32.521                     : en:46. "Where Is the Horse and the Rider?"
02:42:17.251                     : en:47. "Don't Be Hasty, Master Meriadoc!"
02:43:07.926                     : en:48. The Host of the Eldar
02:46:42.015                     : en:49. The Batter of the Hornburg
02:53:04.397                     : en:50. Old Entish
02:54:41.452                     : en:51. The Breach of the Deeping Wall
02:58:06.574                     : en:52. The Entmoot Decides
02:59:51.721                     : en:53. The Retreat to the Hornburg
03:05:54.208                     : en:54. Master Peregrin's Plan
03:07:19.293                     : en:55. Osgiliath
03:07:54.036                     : en:56. The Last March of the Ents
03:10:23.560                     : en:57. The Nazgul Attack
03:12:55.545                     : en:58. Forth Eorlingas
03:17:34.032                     : en:59. The Flooding of Isengard
03:20:00.386                     : en:60. The Tales That Really Mattered...
03:24:45.671                     : en:61. Fangorn Comes to Helm's Deep
03:25:37.224                     : en:62. The Final Tally
03:26:18.764                     : en:63. Flotsam and Jetsam
03:28:22.555                     : en:64. Farewell to Faramir
03:30:52.413                     : en:65. "The Battle for Middle-Earth is About to Begin"
03:32:32.096                     : en:66. Gollum's Plan
03:34:56.240                     : en:67. End Credits
03:43:52.525                     : en:68. Fan Club Credits

Властелин колец: Возвращение Короля / The Lord of the Rings: The Return of the King (2003) [Extended Edition]

Властелин колец: Возвращение Короля / The Lord of the Rings: The Return of the King (2003) [Extended Edition]

-Страна: США, Новая Зеландия
Жанр: Боевик, фэнтези, приключения.
Год выпуска: 2003
Продолжительность: 04:23:17-Перевод: Профессиональный (многоголосый закадровый)
Формат субтитров: ass, srt, pgs
Оригинальная аудиодорожка: Английская-Режиссер: Питер Джексон / Peter Jackson-В ролях: Элайджа Вуд, Шон Эстин, Вигго Мортенсен, Иэн МакКеллен, Доминик Монахэн, Билли Бойд, Шон Бин, Орландо Блум, Джон Рис-Дэвис, Кристофер Ли-Описание: Последняя часть трилогии о Кольце Всевластия и о героях, взявших на себя бремя спасения Средиземья. Повелитель сил Тьмы Саурон направляет свои бесчисленные рати под стены Минас-Тирита, крепости Последней Надежды. Он предвкушает близкую победу, но именно это и мешает ему заметить две крохотные фигурки — хоббитов, приближающихся к Роковой Горе, где им предстоит уничтожить Кольцо Всевластия. Улыбнется ли им счастье?-Тип релиза: BDRemux
Контейнер: MKV
Видео: MPEG-4 AVC / 30474 kbps / 1920х1080 / 23,976 fps / High Profile 4.1
Аудио 1: Русский / DTS-HD MA / 4570 kbps / 6.1 / 48 kHz / 24-bit (DTS Core: 6.1-ES / 48 kHz / 1509 kbps / 24-bit) (многоголосый Позитив мм)
Аудио 2: Русский / Dolby Digital / 5.1 / 48 kHz / 448 kbps (дубляж + вставки Позитив мм на расширенные места)
Аудио 3: Русский / DTS-HD HR / 2559 kbps / 6.1 / 48 kHz / 24-bit (DTS Core: 6.1-ES / 48 kHz / 1509 kbps / 24-bit) (многоголосый SRI)
Аудио 4: Русский / DTS-ES / 1536 kbps / 6.1 / 48 kHz (Гаврилов)
Аудио 5: Русский / DTS-ES / 1536 kbps / 6.1 / 48 kHz (Рябов)
Аудио 6: Английский / DTS-HD MA / 4552 kbps / 6.1 / 48 kHz / 24-bit (DTS Core: 6.1-ES / 48 kHz / 1509 kbps / 24-bit)
Аудио 7: Английский / Dolby Digital / 2.0 / 48 kHz / 192 kbps (Commentary with Director & Writers)
Аудио 8: Английский / Dolby Digital / 2.0 / 48 kHz / 192 kbps (Commentary with Design Team)
Аудио 9: Английский / Dolby Digital / 2.0 / 48 kHz / 192 kbps (Commentary with Production and Post Production)
Аудио 10: Английский / Dolby Digital / 2.0 / 48 kHz / 192 kbps (Commentary with Cast)
Чаптеры: есть

MediaInfo

[code]
Complete name : The.Lord.of.the.Rings-The.Return.of.the.King.2003.Blu-ray.Extended.1080p.AVC.Rus.Eng.mkv
Format : Matroska
File size : 85.4 GiB
Duration : 4h 23mn
Overall bit rate : 46.4 Mbps
Movie name : HANSMER
Encoded date : UTC 2011-08-01 11:28:37
Writing application : mkvmerge v4.9.1 ('Ich will') сборка от Jul 11 2011 23:53:15
Writing library : libebml v1.2.1 + libmatroska v1.1.1
Cover : Yes / Yes / Yes
Video
ID : 1
Format : AVC
Format/Info : Advanced Video Codec
Format profile : High@L4.1
Format settings, CABAC : Yes
Format settings, ReFrames : 2 frames
Codec ID : V_MPEG4/ISO/AVC
Duration : 4h 23mn
Bit rate mode : Variable
Bit rate : 36.7 Mbps
Width : 1 920 pixels
Height : 1 080 pixels
Display aspect ratio : 16:9
Frame rate : 23.976 fps
Color space : YUV
Chroma subsampling : 4:2:0
Bit depth : 8 bits
Scan type : Progressive
Bits/(Pixel*Frame) : 0.739
Stream size : 67.6 GiB (79%)
Title : 30474 kbps
Language : English
Audio #1
ID : 2
Format : DTS
Format/Info : Digital Theater Systems
Format profile : MA / Core
Codec ID : A_DTS
Duration : 4h 23mn
Bit rate mode : Variable
Bit rate : 1 510 Kbps
Channel(s) : 7 channels / 6 channels
Channel positions : Front: L C R, Side: L R, Back: C, LFE / Front: L C R, Side: L R, LFE
Sampling rate : 48.0 KHz
Bit depth : 24 bits
Compression mode : Lossless / Lossy
Stream size : 2.78 GiB (3%)
Title : Pozitiv MM / DTS-HD MA 6.1 @ 4570 kbps
Language : Russian
Audio #2
ID : 3
Format : AC-3
Format/Info : Audio Coding 3
Mode extension : CM (complete main)
Codec ID : A_AC3
Duration : 4h 23mn
Bit rate mode : Constant
Bit rate : 448 Kbps
Channel(s) : 6 channels
Channel positions : Front: L C R, Side: L R, LFE
Sampling rate : 48.0 KHz
Bit depth : 16 bits
Compression mode : Lossy
Stream size : 844 MiB (1%)
Title : Dub + Pozitiv MM
Language : Russian
Audio #3
ID : 4
Format : DTS
Format/Info : Digital Theater Systems
Format profile : HRA / Core
Codec ID : A_DTS
Duration : 4h 23mn
Bit rate mode : Constant
Bit rate : 1 510 Kbps
Channel(s) : 7 channels / 6 channels
Channel positions : Front: L C R, Side: L R, Back: C, LFE / Front: L C R, Side: L R, LFE
Sampling rate : 48.0 KHz
Bit depth : 24 bits
Compression mode : Lossy
Stream size : 2.78 GiB (3%)
Title : SRI / DTS-HD HR 6.1 @ 2559 kbps
Language : Russian
Audio #4
ID : 5
Format : DTS
Format/Info : Digital Theater Systems
Format profile : ES
Codec ID : A_DTS
Duration : 4h 23mn
Bit rate mode : Constant
Bit rate : 1 510 Kbps
Channel(s) : 7 channels / 6 channels
Channel positions : Front: L C R, Side: L R, Back: C, LFE / Front: L C R, Side: L R, LFE
Sampling rate : 48.0 KHz
Bit depth : 24 bits
Compression mode : Lossy
Stream size : 2.78 GiB (3%)
Title : Gavrilov
Language : Russian
Audio #5
ID : 6
Format : DTS
Format/Info : Digital Theater Systems
Format profile : ES
Codec ID : A_DTS
Duration : 4h 23mn
Bit rate mode : Constant
Bit rate : 1 510 Kbps
Channel(s) : 7 channels / 6 channels
Channel positions : Front: L C R, Side: L R, Back: C, LFE / Front: L C R, Side: L R, LFE
Sampling rate : 48.0 KHz
Bit depth : 24 bits
Compression mode : Lossy
Stream size : 2.78 GiB (3%)
Title : Rjabov
Language : Russian
Audio #6
ID : 7
Format : DTS
Format/Info : Digital Theater Systems
Format profile : MA / Core
Codec ID : A_DTS
Duration : 4h 23mn
Bit rate mode : Variable
Bit rate : 1 510 Kbps
Channel(s) : 7 channels / 6 channels
Channel positions : Front: L C R, Side: L R, Back: C, LFE / Front: L C R, Side: L R, LFE
Sampling rate : 48.0 KHz
Bit depth : 24 bits
Compression mode : Lossless / Lossy
Stream size : 2.78 GiB (3%)
Title : DTS-HD MA 6.1 @ 4552 kbps
Language : English
Audio #7
ID : 8
Format : AC-3
Format/Info : Audio Coding 3
Format profile : Dolby Digital
Mode extension : CM (complete main)
Codec ID : A_AC3
Duration : 4h 23mn
Bit rate mode : Constant
Bit rate : 192 Kbps
Channel(s) : 2 channels
Channel positions : Front: L R
Sampling rate : 48.0 KHz
Bit depth : 16 bits
Compression mode : Lossy
Stream size : 362 MiB (0%)
Title : Commentary with Director & Writers
Language : English
Audio #8
ID : 9
Format : AC-3
Format/Info : Audio Coding 3
Format profile : Dolby Digital
Mode extension : CM (complete main)
Codec ID : A_AC3
Duration : 4h 23mn
Bit rate mode : Constant
Bit rate : 192 Kbps
Channel(s) : 2 channels
Channel positions : Front: L R
Sampling rate : 48.0 KHz
Bit depth : 16 bits
Compression mode : Lossy
Stream size : 362 MiB (0%)
Title : Commentary with Design Team
Language : English
Audio #9
ID : 10
Format : AC-3
Format/Info : Audio Coding 3
Format profile : Dolby Digital
Mode extension : CM (complete main)
Codec ID : A_AC3
Duration : 4h 23mn
Bit rate mode : Constant
Bit rate : 192 Kbps
Channel(s) : 2 channels
Channel positions : Front: L R
Sampling rate : 48.0 KHz
Bit depth : 16 bits
Compression mode : Lossy
Stream size : 362 MiB (0%)
Title : Commentary with Production and Post Production
Language : English
Audio #10
ID : 11
Format : AC-3
Format/Info : Audio Coding 3
Format profile : Dolby Digital
Mode extension : CM (complete main)
Codec ID : A_AC3
Duration : 4h 23mn
Bit rate mode : Constant
Bit rate : 192 Kbps
Channel(s) : 2 channels
Channel positions : Front: L R
Sampling rate : 48.0 KHz
Bit depth : 16 bits
Compression mode : Lossy
Stream size : 362 MiB (0%)
Title : Commentary with Cast
Language : English
Text #1
ID : 12
Format : ASS
Codec ID : S_TEXT/ASS
Codec ID/Info : Advanced Sub Station Alpha
Compression mode : Lossless
Title : Forced Pozitiv MM
Language : Russian
Text #2
ID : 13
Format : UTF-8
Codec ID : S_TEXT/UTF8
Codec ID/Info : UTF-8 Plain Text
Title : Pozitiv MM
Language : Russian
Text #3
ID : 14
Format : UTF-8
Codec ID : S_TEXT/UTF8
Codec ID/Info : UTF-8 Plain Text
Title : Henneth-annun
Language : Russian
Text #4
ID : 15
Format : UTF-8
Codec ID : S_TEXT/UTF8
Codec ID/Info : UTF-8 Plain Text
Language : Ukrainian
Text #5
ID : 16
Format : ASS
Codec ID : S_TEXT/ASS
Codec ID/Info : Advanced Sub Station Alpha
Compression mode : Lossless
Title : Forsed
Language : English
Text #6
ID : 17
Format : ASS
Codec ID : S_TEXT/ASS
Codec ID/Info : Advanced Sub Station Alpha
Compression mode : Lossless
Language : English
Text #7
ID : 18
Format : PGS
Codec ID : S_HDMV/PGS
Codec ID/Info : The same subtitle format used on BDs/HD-DVDs
Title : PGS Forced Pozitiv MM
Language : Russian
Text #8
ID : 19
Format : PGS
Codec ID : S_HDMV/PGS
Codec ID/Info : The same subtitle format used on BDs/HD-DVDs
Title : PGS Pozitiv MM
Language : Russian
Text #9
ID : 20
Format : PGS
Codec ID : S_HDMV/PGS
Codec ID/Info : The same subtitle format used on BDs/HD-DVDs
Title : PGS Forced
Language : English
Text #10
ID : 21
Format : PGS
Codec ID : S_HDMV/PGS
Codec ID/Info : The same subtitle format used on BDs/HD-DVDs
Title : PGS SDH
Language : English
Menu
00:00:00.000 : en: 1. The Finding of the Ring
00:06:24.342 : en: 2. Journey to the Cross-Roads
00:09:21.394 : en: 3. The Road to Isengard
00:11:21.848 : en: 4. The Voice of Saruman
00:18:23.311 : en: 5. Return to Edoras
00:23:05.009 : en: 6. Gollum's Villany
00:27:03.330 : en: 7. Eowyn's Dream
00:29:00.697 : en: 8. The Palantir
00:37:06.433 : en: 9. Arwen's Vision
00:40:02.567 : en:10. The Reforging of Narsil
00:42:03.229 : en:11. Minas Tirith
00:47:52.203 : en:12. The Decline of Gondor
00:50:18.641 : en:13. Cross-Roads of the Fallen King
00:52:18.761 : en:14. "The Deep Breath Before the Plunge"
00:55:35.332 : en:15. Minas Morgul
00:59:36.406

[Цитировать]



Показать сообщения:    

Текущее время: 10-Дек 23:32

Часовой пояс: UTC + 3


Вы не можете начинать темы
Вы не можете отвечать на сообщения
Вы не можете редактировать свои сообщения
Вы не можете удалять свои сообщения
Вы не можете голосовать в опросах
Вы не можете прикреплять файлы к сообщениям
Вы не можете скачивать файлы

!ВНИМАНИЕ!
Сайт не предоставляет электронные версии произведений, а занимается лишь коллекционированием и каталогизацией ссылок, присылаемых и публикуемых на форуме нашими читателями. Если вы являетесь правообладателем какого-либо представленного материала и не желаете, чтобы ссылка на него находилась в нашем каталоге, свяжитесь с нами, и мы незамедлительно удалим ее. Файлы для обмена на трекере предоставлены пользователями сайта, и администрация не несет ответственности за их содержание. Просьба не заливать файлы, защищенные авторскими правами, а также файлы нелегального содержания!