[ Today is free to download without increasing Download ]

DL-List and Torrent activity
Левша/ Southpaw- Год выпуска: 2015
Жанр: Драма, спорт, боевик, триллер
Выпущено: США, Escape Artists, Fuqua Films, Riche Productions
Продолжительность: 02:03:46
Перевод: Дублированный
Режиссер: Антуан Фукуа
В ролях: Джейк Джилленхол, Рэйчел МакАдамс, Форест Уайтейкер, Наоми Харрис, Фифти Сент, Мигель Гомес, Бо Напп, Клер Фоли, Виктор Ортиц, Оона Лоренс, Скайлан Брукс, Доминик Колон, Дэвид Уэйлен, Адам Рэтклифф, Мишель Джонстон
О фильме: У боксера Билли Хоупа все было прекрасно: звание чемпиона, красавица-жена и любимая дочка. Но фортуна отворачивается от него: при трагических обстоятельствах погибает любимая жена, дисквалификация на ринге, нулевые доходы, суд лишает его родительских прав… Хоуп должен отстоять звание чемпиона и вернуть дочь. Есть ли у Хоупа шансы на победу? Все решит его знаменитый хук левой…- -Качество: WEB-DL 1080p
Формат: MKV
Видео: MPEG-4 AVC, 4478 Кбит/с, 1912x796
Аудио: AC3, 6 ch, 384 Кбит/с


Format : Matroska
Format version : Version 4 / Version 2
File size : 4.03 GiB
Duration : 1h 58mn
Overall bit rate : 4 859 Kbps
Movie name : Release for HDCLUB
Encoded date : UTC 2015-08-31 19:05:21
Writing application : mkvmerge v6.2.0 ('Promised Land') built on Apr 28 2013 12:22:01
Writing library : libebml v1.3.0 + libmatroska v1.4.0
ID : 1
Format : AVC
Format/Info : Advanced Video Codec
Format profile : High@L4
Format settings, CABAC : Yes
Format settings, ReFrames : 5 frames
Duration : 1h 58mn
Bit rate : 4 378 Kbps
Width : 1 912 pixels
Height : 796 pixels
Display aspect ratio : 2.40:1
Frame rate mode : Constant
Frame rate : 25.000 fps
Color space : YUV
Chroma subsampling : 4:2:0
Bit depth : 8 bits
Scan type : Progressive
Bits/(Pixel*Frame) : 0.115
Stream size : 3.63 GiB (90%)
Language : English
Default : Yes
Forced : No
Color range : Limited
Color primaries : BT.709
Transfer characteristics : BT.709
Matrix coefficients : BT.709
ID : 2
Format : AC-3
Format/Info : Audio Coding 3
Mode extension : CM (complete main)
Format settings, Endianness : Big
Codec ID : A_AC3
Duration : 1h 58mn
Bit rate mode : Constant
Bit rate : 384 Kbps
Channel(s) : 6 channels
Channel positions : Front: L C R, Side: L R, LFE
Sampling rate : 48.0 KHz
Compression mode : Lossy
Stream size : 326 MiB (8%)
Language : Russian
Default : Yes
Forced : No
00:00:00.000 : en:1
00:08:27.000 : en:2
00:19:11.000 : en:3
00:29:22.000 : en:4
00:38:07.000 : en:5
00:47:06.000 : en:6
00:57:02.000 : en:7
01:08:03.000 : en:8
01:18:25.000 : en:9
01:29:27.000 : en:10
01:35:17.000 : en:11
01:47:37.000 : en:12
01:54:46.000 : en:13



Display posts:    

Current time is: 22-Oct 19:14

All times are UTC + 3

You cannot post new topics in this forum
You cannot reply to topics in this forum
You cannot edit your posts in this forum
You cannot delete your posts in this forum
You cannot vote in polls in this forum
You cannot attach files in this forum
You cannot download files in this forum

The site does not give electronic versions of products, and is engaged only in a collecting and cataloguing of the references sent and published at a forum by our readers. If you are the legal owner of any submitted material and do not wish that the reference to it was in our catalogue, contact us and we shall immediately remove her. Files for an exchange on tracker are given by users of a site, and the administration does not bear the responsibility for their maintenance. The request to not fill in the files protected by copyrights, and also files of the illegal maintenance!