[ Сегодня идет свободное скачивание без начисления Download ]


Статистика раздачи
Нет
 
   
 
Top  
 
 
Название: Спящий лагерь
Оригинальное название: Sleepaway Camp
Год выпуска: 1983
Жанр: Ужасы, триллер
Выпущено: США, American Eagle
Режиссер: Роберт Хилтзик
В ролях: Фелисса Роуз, Джонатан Тирстен, Карен Филдс, Кристофер Коллет, Майк Келлин, Кэтрин Кэми, Пол ДеАнджело, Томас Е. ван Делл, Лорис Саллахиан, Джон Э. Данн
О фильме: На озере тонет яхта с мужчиной и двумя его детьми на борту. Катающиеся рядом на катерах подростки не обратили внимания на разыгравшуюся трагедию. В результате их неосторожной езды мужчина и его сын погибают. Оставшаяся в живых девочка Анжела отправляется жить вместе со своей тётей Мартой и двоюродным братом Рикки. Только теперь девочка постоянно молчит, перенеся сильный травматический шок. Восемь лет спустя Анжела и Рикки отправляются в летний лагерь, на озеро, где погибли её отец и брат. Необщительная Анжела становится предметом нападок и шуток со стороны подростков. Она не устраивает своим поведением даже взрослых. И вскоре люди, которые причиняли ей боль, начинают погибать от рук таинственного убийцы…
Качество: BDRip
Видео: XviD, 1901 Кбит/с, 720x400
Аудио: Русский, английский (AC3, 2 ch, 192 Кбит/с)
Размер: 1.48 ГБ
Продолжительность: 01:24:50
Перевод: Профессиональный многоголосый, авторский (Сергей Визгунов)

MediaInfo

Общее
Полное имя : D:VideoSpjashij lager.1983.XviD.BDRipSpjashij lager.1983.eng.SDH.srt
Размер файла : 150 Кбайт
Общее
Полное имя : D:VideoSpjashij lager.1983.XviD.BDRipSpjashij lager.1983.Original.eng.ac3
Формат : AC-3
Формат/Информация : Audio Coding 3
Размер файла : 117 Мбайт
Продолжительность : 1 ч. 24 м.
Режим общего битрейта : Постоянный
Общий поток : 192 Кбит/сек
Аудио
Формат : AC-3
Формат/Информация : Audio Coding 3
Расширение режима : CM (complete main)
Параметр Endianness формата : Big
Продолжительность : 1 ч. 24 м.
Вид битрейта : Постоянный
Битрейт : 192 Кбит/сек
Каналы : 2 канала
Расположение каналов : Front: L R
Частота : 48,0 КГц
Битовая глубина : 16 бит
Метод сжатия : С потерями
Размер потока : 117 Мбайт (100%)
Общее
Полное имя : D:VideoSpjashij lager.1983.XviD.BDRipSpjashij lager.1983.XviD.BDRip.avi
Формат : AVI
Формат/Информация : Audio Video Interleave
Размер файла : 1,36 Гбайт
Продолжительность : 1 ч. 24 м.
Общий поток : 2299 Кбит/сек
Программа кодирования : VirtualDubMod 1.5.10.2 (build 2540/release)
Библиотека кодирования : VirtualDubMod build 2540/release
Видео
Идентификатор : 0
Формат : MPEG-4 Visual
Профиль формата : Advanced [email protected]
Параметр BVOP формата : 1
Параметр QPel формата : Нет
Параметр GMC формата : Без точки перехода
Параметр матрицы формата : Default (H.263)
Режим смешивания : Сжатый битовый поток
Идентификатор кодека : XVID
Идентификатор кодека/Подсказка : XviD
Продолжительность : 1 ч. 24 м.
Битрейт : 1901 Кбит/сек
Ширина : 720 пикселей
Высота : 400 пикселей
Соотношение сторон : 16:9
Частота кадров : 23,976 кадра/сек
Цветовое пространство : YUV
Субдискретизация насыщенности : 4:2:0
Битовая глубина : 8 бит
Тип развёртки : Прогрессивная
Метод сжатия : С потерями
Бит/(Пиксели*Кадры) : 0.275
Размер потока : 1,13 Гбайт (83%)
Библиотека кодирования : XviD 1.2.1 (UTC 2008-12-04)
Аудио #1
Идентификатор : 1
Формат : AC-3
Формат/Информация : Audio Coding 3
Расширение режима : CM (complete main)
Параметр Endianness формата : Big
Идентификатор кодека : 2000
Продолжительность : 1 ч. 24 м.
Вид битрейта : Постоянный
Битрейт : 192 Кбит/сек
Каналы : 2 канала
Расположение каналов : Front: L R
Частота : 48,0 КГц
Битовая глубина : 16 бит
Метод сжатия : С потерями
Размер потока : 117 Мбайт (8%)
Выравнивание : Разделение по промежуткам
Продолжительность промежутка : 42 мс. (1,00 видеокадр)
Время предзагрузки промежутка : 500 мс.
Аудио #2
Идентификатор : 2
Формат : AC-3
Формат/Информация : Audio Coding 3
Расширение режима : CM (complete main)
Параметр Endianness формата : Big
Идентификатор кодека : 2000
Продолжительность : 1 ч. 24 м.
Вид битрейта : Постоянный
Битрейт : 192 Кбит/сек
Каналы : 2 канала
Расположение каналов : Front: L R
Частота : 48,0 КГц
Битовая глубина : 16 бит
Метод сжатия : С потерями
Размер потока : 117 Мбайт (8%)
Выравнивание : Разделение по промежуткам
Продолжительность промежутка : 42 мс. (1,00 видеокадр)
Время предзагрузки промежутка : 500 мс.

Скриншоты

[Цитировать]



Показать сообщения:    

Текущее время: 06-Дек 13:17

Часовой пояс: UTC + 3


Вы не можете начинать темы
Вы не можете отвечать на сообщения
Вы не можете редактировать свои сообщения
Вы не можете удалять свои сообщения
Вы не можете голосовать в опросах
Вы не можете прикреплять файлы к сообщениям
Вы не можете скачивать файлы

!ВНИМАНИЕ!
Сайт не предоставляет электронные версии произведений, а занимается лишь коллекционированием и каталогизацией ссылок, присылаемых и публикуемых на форуме нашими читателями. Если вы являетесь правообладателем какого-либо представленного материала и не желаете, чтобы ссылка на него находилась в нашем каталоге, свяжитесь с нами, и мы незамедлительно удалим ее. Файлы для обмена на трекере предоставлены пользователями сайта, и администрация не несет ответственности за их содержание. Просьба не заливать файлы, защищенные авторскими правами, а также файлы нелегального содержания!