[ Сегодня идет свободное скачивание без начисления Download ]


Статистика раздачи
Нет
 
   
 
Top  
 
 
Однажды в Ростове -Сезон 1, серии 1-24 из 24- Год выпуска: 2012
Страна: Россия, ООО Продюсерский центр Сергея Жигунова
Жанр: Детектив
Продолжительность: 24 x ~ 00:44:00-Перевод: Оригинал [Лицензия] -Субтитры: нет
-
В ролях:
Сергей Жигунов, Владимир Вдовиченков, Виктор Раков, Алена Бабенко, Кирилл Плетнев, Виталий Хаев, Михаил Евланов, Евгений Князев, Андрей Ильин, Константин Лавроненко, Сергей Тарамаев

-
Режиссёр:
Константин Худяков
-

Это история о легендарной банде «фантомасов» Толстопятовых, державших в 60-е в страхе весь город, о расстреле голодного бунта в Новочеркасске и его последствиях для страны.
СССР, 2 июня 1962 года. После снижения заработной платы и повышения цен жители Новочеркасска вышли на мирную демонстрацию. Но страсти быстро накалились и привели к трагедии — расстрелу митингующих рабочих, несмотря на протесты генерала Шапошникова. Властям удается замять трагедию, у свидетелей берут подписку о неразглашении, а все несогласные получают тюремные сроки.
Работающий в ростовском кинотеатре художником Вячеслав Толстопятов поехал в Новочеркасск погостить у любимой девушки, а также сбыть изготовленные им фальшивые деньги, но стал свидетелем расстрела мирных людей…
-Качество: DVDRip-Формат: AVI
Видео кодек: XviD
Аудио кодек: AC-3-Видео: 720x400 (1.80:1), 25 fps, XviD build 73 ~1999 kbps avg, 0.28 bit/pixel
Аудио: 48 kHz, AC3 Dolby Digital, 2/0 (L,R) ch, ~192 kbps-
-

рейтинг

МедиаИнфо

Общее
Полное имя : D:\Новая папка\фильмы\Однажды в Ростове (24 серии) DVDRip\01.avi
Формат : AVI
Формат/Информация : Audio Video Interleave
Размер файла : 704 Мбайт
Продолжительность : 44 м.
Общий поток : 2201 Кбит/сек
Программа кодирования : VirtualDubMod 1.5.10.3 | || (build 2550/release)
Библиотека кодирования : VirtualDubMod build 2550/release
Видео
Идентификатор : 0
Формат : MPEG-4 Visual
Профиль формата : Advanced [email protected]
Параметр BVOP формата : 1
Параметр QPel формата : Нет
Параметр GMC формата : Без точки перехода
Параметр матрицы формата : Выборочная
Идентификатор кодека : XVID
Идентификатор кодека/Подсказка : XviD
Продолжительность : 44 м.
Битрейт : 2000 Кбит/сек
Ширина : 720 пикселей
Высота : 400 пикселей
Соотношение сторон : 16:9
Частота кадров : 25,000 кадров/сек
Цветовое пространство : YUV
Субдискретизация насыщенности : 4:2:0
Битовая глубина : 8 бит
Тип развёртки : Прогрессивная
Метод сжатия : С потерями
Бит/(Пиксели*Кадры) : 0.278
Размер потока : 639 Мбайт (91%)
Библиотека кодирования : XviD 73
Аудио
Идентификатор : 1
Формат : AC-3
Формат/Информация : Audio Coding 3
Расширение режима : CM (complete main)
Параметр Endianness формата : Big
Идентификатор кодека : 2000
Продолжительность : 44 м.
Вид битрейта : Постоянный
Битрейт : 192 Кбит/сек
Каналы : 2 канала
Расположение каналов : Front: L R
Частота : 48,0 КГц
Битовая глубина : 16 бит
Метод сжатия : С потерями
Размер потока : 61,4 Мбайт (9%)
Выравнивание : Разделение по промежуткам
Продолжительность промежутка : 40 мс. (1,00 видеокадр)
Время предзагрузки промежутка : 500 мс.

Скриншоты

h

[Цитировать]



Показать сообщения:    

Текущее время: 07-Дек 00:56

Часовой пояс: UTC + 3


Вы не можете начинать темы
Вы не можете отвечать на сообщения
Вы не можете редактировать свои сообщения
Вы не можете удалять свои сообщения
Вы не можете голосовать в опросах
Вы не можете прикреплять файлы к сообщениям
Вы не можете скачивать файлы

!ВНИМАНИЕ!
Сайт не предоставляет электронные версии произведений, а занимается лишь коллекционированием и каталогизацией ссылок, присылаемых и публикуемых на форуме нашими читателями. Если вы являетесь правообладателем какого-либо представленного материала и не желаете, чтобы ссылка на него находилась в нашем каталоге, свяжитесь с нами, и мы незамедлительно удалим ее. Файлы для обмена на трекере предоставлены пользователями сайта, и администрация не несет ответственности за их содержание. Просьба не заливать файлы, защищенные авторскими правами, а также файлы нелегального содержания!