[ Сегодня идет свободное скачивание без начисления Download ]


Статистика раздачи
Нет
 
   
 
Top  
 
 
Ложь во спасение / The Good Lie
«Miracles are made by people who refuse to stop believing»
Русское название: Ложь во спасение
Оригинальное название: The Good Lie
Год выпуска: 2014
Жанр: драма
Выпущено: Кения, Индия, США
Режиссер: Филипп Фалардо
В ролях: Риз Уизерспун , Арнольд Ошенг , Гер Дуэни , Эммануэль Джал , Кори Столл , Кут Вил , Феми Огунс , Сара Бэйкер , Линдси Гаррет , Peterdeng Mongok , Оквар Джале , Thon Kueth
Перевод: Профессиональный многоголосый - [iTunes]

Сюжет фильма:
Военные беженцы из Судана получили разрешение на иммиграцию в Канзас-Сити, спустя 13 лет после того, как попали в лагерь беженцев, спасаясь от пуль солдат. Здесь им предстоит начать жизнь заново, найти работу, преодолевать трудности. "Потерянные мальчики Судана" - так назвали этих детей гражданской войны, разразившейся в Судане в 1983 году, когда сжигались целые деревни, а бомбы летели на мирные селения, уничтожая детей, стариков, женщин...

Качество: BDRip 720p
Формат: AVC (библиотека кодирования x.264)
Контейнер (Расширение): MKV
Видео: 1280x720, 4410 Кбит/сек, 23,976 кадр/сек, 0,200 Бит/[Пиксели*Кадры]
Аудио №1: русский / AC3 / 5.1 / 48 kHz / 384 kbps / |Профессиональный многоголосый - [iTunes]|
Аудио №2: английский / AC3 / 5.1 / 48 kHz / 640 kbps /
Субтитры: русские (forced), русские, английские
Навигация по главам(Чаптеры): есть
Продолжительность: 01:50:00

MediaInfo

Format : Matroska
Format version : Version 2
File size : 4.17 GiB
Duration : 1h 50mn
Overall bit rate : 5 433 Kbps
Movie name : Lozh' vo spasenie.(2014).BDRip.720p.[denis100]
Encoded date : UTC 2015-09-06 08:39:20
Writing application : mkvmerge v5.8.0 ('No Sleep / Pillow') built on Sep 2 2012 15:37:04
Writing library : libebml v1.2.3 + libmatroska v1.3.0
Video
ID : 1
Format : AVC
Format/Info : Advanced Video Codec
Format profile : High@L4.1
Format settings, CABAC : Yes
Format settings, ReFrames : 9 frames
Codec ID : V_MPEG4/ISO/AVC
Duration : 1h 50mn
Bit rate : 4 410 Kbps
Width : 1 280 pixels
Height : 720 pixels
Display aspect ratio : 16:9
Frame rate : 23.976 fps
Color space : YUV
Chroma subsampling : 4:2:0
Bit depth : 8 bits
Scan type : Progressive
Bits/(Pixel*Frame) : 0.200
Stream size : 3.30 GiB (79%)
Title : Lozh' vo spasenie.(2014).BDRip.720p.[denis100]
Writing library : x264 core 148 r2597 e86f3a1
Encoding settings : cabac=1 / ref=9 / deblock=1:-3:-3 / analyse=0x3:0x133 / me=umh / subme=11 / psy=1 / psy_rd=1.00:0.00 / mixed_ref=1 / me_range=32 / chroma_me=1 / trellis=2 / 8x8dct=1 / cqm=0 / deadzone=21,11 / fast_pskip=0 / chroma_qp_offset=-2 / threads=6 / lookahead_threads=1 / sliced_threads=0 / nr=0 / decimate=1 / interlaced=0 / bluray_compat=0 / constrained_intra=0 / bframes=14 / b_pyramid=2 / b_adapt=2 / b_bias=0 / direct=1 / weightb=1 / open_gop=0 / weightp=2 / keyint=240 / keyint_min=23 / scenecut=40 / intra_refresh=0 / rc=2pass / mbtree=0 / bitrate=4410 / ratetol=1.0 / qcomp=0.60 / qpmin=0 / qpmax=69 / qpstep=4 / cplxblur=20.0 / qblur=0.5 / ip_ratio=1.40 / pb_ratio=1.30 / aq=1:1.00
Language : English
Default : Yes
Forced : No
Audio #1
ID : 2
Format : AC-3
Format/Info : Audio Coding 3
Mode extension : CM (complete main)
Codec ID : A_AC3
Duration : 1h 50mn
Bit rate mode : Constant
Bit rate : 384 Kbps
Channel(s) : 6 channels
Channel positions : Front: L C R, Side: L R, LFE
Sampling rate : 48.0 KHz
Bit depth : 16 bits
Compression mode : Lossy
Stream size : 302 MiB (7%)
Title : Профессиональный многоголосый (iTunes)
Language : Russian
Default : Yes
Forced : No
Audio #2
ID : 3
Format : AC-3
Format/Info : Audio Coding 3
Mode extension : CM (complete main)
Codec ID : A_AC3
Duration : 1h 50mn
Bit rate mode : Constant
Bit rate : 640 Kbps
Channel(s) : 6 channels
Channel positions : Front: L C R, Side: L R, LFE
Sampling rate : 48.0 KHz
Bit depth : 16 bits
Compression mode : Lossy
Stream size : 504 MiB (12%)
Language : English
Default : No
Forced : No
Text #1
ID : 4
Format : UTF-8
Codec ID : S_TEXT/UTF8
Codec ID/Info : UTF-8 Plain Text
Title : forced
Language : Russian
Default : Yes
Forced : No
Text #2
ID : 5
Format : UTF-8
Codec ID : S_TEXT/UTF8
Codec ID/Info : UTF-8 Plain Text
Language : Russian
Default : No
Forced : No
Text #3
ID : 6
Format : UTF-8
Codec ID : S_TEXT/UTF8
Codec ID/Info : UTF-8 Plain Text
Language : English
Default : No
Forced : No
Menu
00:00:00.000 : en:Chapter 1
00:09:49.089 : en:Chapter 2
00:19:44.850 : en:Chapter 3
00:29:59.840 : en:Chapter 4
00:39:52.140 : en:Chapter 5
00:50:28.984 : en:Chapter 6
00:59:33.111 : en:Chapter 7
01:10:06.953 : en:Chapter 8
01:19:14.750 : en:Chapter 9
01:30:26.338 : en:Chapter 10
01:40:44.705 : en:Chapter 11
01:43:16.649 : en:Chapter 12

x264

x264 [info]: frame I:1217 Avg QP:13.52 size:137887
x264 [info]: frame P:39920 Avg QP:16.47 size: 43668
x264 [info]: frame B:117105 Avg QP:17.60 size: 14725
x264 [info]: consecutive B-frames: 4.2% 5.7% 8.7% 31.6% 15.0% 20.7% 5.1% 4.2% 1.1% 0.6% 0.5% 1.4% 0.3% 0.4% 0.5%

Скриншоты

[Цитировать]



Показать сообщения:    

Текущее время: 10-Дек 23:28

Часовой пояс: UTC + 3


Вы не можете начинать темы
Вы не можете отвечать на сообщения
Вы не можете редактировать свои сообщения
Вы не можете удалять свои сообщения
Вы не можете голосовать в опросах
Вы не можете прикреплять файлы к сообщениям
Вы не можете скачивать файлы

!ВНИМАНИЕ!
Сайт не предоставляет электронные версии произведений, а занимается лишь коллекционированием и каталогизацией ссылок, присылаемых и публикуемых на форуме нашими читателями. Если вы являетесь правообладателем какого-либо представленного материала и не желаете, чтобы ссылка на него находилась в нашем каталоге, свяжитесь с нами, и мы незамедлительно удалим ее. Файлы для обмена на трекере предоставлены пользователями сайта, и администрация не несет ответственности за их содержание. Просьба не заливать файлы, защищенные авторскими правами, а также файлы нелегального содержания!