[ Сегодня идет свободное скачивание без начисления Download ]


Статистика раздачи
Нет
 
   
 
Top  
 
 
Мистер Робот / Mr. Robot
Информация о фильме
Название: Мистер Робот
Оригинальное название: Mr. Robot
Год выхода: 2015
Жанр: драма, криминал
Режиссер: Нильс Арден Оплев
В ролях: Рами Малек, Брюс Олтмен, Майкл Бушеми, Карли Чаикин, Самрат Чакрабарти, Портия Даблдэй, Маурицио Ферриньо, Майкл Гилл, Джереми С. Холм, Диллон Мэтьюз
О фильме:
История молодого программиста Эллиота, страдающего социофобией и решившего, что единственный приемлемый для него способ взаимодействия с людьми — это профессия хакера. Таким образом, он быстро оказывается в том самом месте, где пересекаются интересы его работодателя — фирмы, занимающейся кибербезопасностью, — и подпольных организаций, которые пытаются его завербовать с целью обрушения самых могучих американских корпораций.

Страна: США
Студия: USA
Продолжительность: 00:42:00
Перевод: Профессиональный (многоголосый, закадровый) NewStudio
Файл
Формат: MKV
Кодек: MPEG-4 AVC
Качество: WEB-DL 1080p
Видео: 1920x1080, 23.976 fps, 4800 kbps
Звук: Аудио кодек: AC3
Аудио Rus: 48 kHz, AC3, 6 ch, 384 kbps
Аудио Eng: 48 kHz, AC3, 6 ch, 384 kbps
Перевод: Григорий Сенин

Скриншоты

Список серий

01. eps1.0_hellofriend.mov / Привет друг
02. eps.1.1_ones-and-zer0es.mpeg / Единицы и нули
03. eps.1.2_d3bug.mkv / Дебаг
04. eps.1.3_da3m0ns.mp4 / Подвиги
05. eps1.4_3xpl0its.wmv / Разработки
06. eps1.5_br4ve-trave1er.asf / Храбрый путник
07. eps1.6_v1ew-s0urce.flv / Просмотр кода
08. eps1.7_wh1ter0se.m4v / Уайтроуз
09. eps1.8_m1rr0r1ng.qt / Зеркальное копирование
10. eps1.9_zer0-daY.avi / Нулевой день

MediaInfo

General
Format : Matroska
Format version : Version 2
File size : 2.56 GiB
Duration : 1h 4mn
Overall bit rate : 5 650 Kbps
Encoded date : UTC 2015-05-30 11:28:30
Writing application : mkvmerge v2.9.9 ('Tutu') built on Nov 25 2009 21:13:32
Writing library : libebml v0.7.9 + libmatroska v0.8.1
Video
ID : 1
Format : AVC
Format/Info : Advanced Video Codec
Format profile : High@L4.0
Format settings, CABAC : Yes
Format settings, ReFrames : 4 frames
Codec ID : V_MPEG4/ISO/AVC
Duration : 1h 4mn
Bit rate : 4 770 Kbps
Width : 1 920 pixels
Height : 1 080 pixels
Display aspect ratio : 16:9
Frame rate mode : Constant
Frame rate : 23.976 fps
Color space : YUV
Chroma subsampling : 4:2:0
Bit depth : 8 bits
Scan type : Progressive
Bits/(Pixel*Frame) : 0.096
Stream size : 2.16 GiB (84%)
Language : English
Default : No
Forced : No
Color primaries : BT.709
Transfer characteristics : BT.709
Matrix coefficients : BT.709
Audio #1
ID : 2
Format : AC-3
Format/Info : Audio Coding 3
Mode extension : CM (complete main)
Format settings, Endianness : Big
Codec ID : A_AC3
Duration : 1h 4mn
Bit rate mode : Constant
Bit rate : 384 Kbps
Channel(s) : 6 channels
Channel positions : Front: L C R, Side: L R, LFE
Sampling rate : 48.0 KHz
Bit depth : 16 bits
Compression mode : Lossy
Stream size : 178 MiB (7%)
Language : Russian
Default : Yes
Forced : Yes
Audio #2
ID : 3
Format : AC-3
Format/Info : Audio Coding 3
Mode extension : CM (complete main)
Format settings, Endianness : Big
Codec ID : A_AC3
Duration : 1h 4mn
Bit rate mode : Constant
Bit rate : 384 Kbps
Channel(s) : 6 channels
Channel positions : Front: L C R, Side: L R, LFE
Sampling rate : 48.0 KHz
Bit depth : 16 bits
Compression mode : Lossy
Stream size : 178 MiB (7%)
Language : English
Default : No
Forced : No

[Цитировать]



Показать сообщения:    

Текущее время: 10-Дек 02:14

Часовой пояс: UTC + 3


Вы не можете начинать темы
Вы не можете отвечать на сообщения
Вы не можете редактировать свои сообщения
Вы не можете удалять свои сообщения
Вы не можете голосовать в опросах
Вы не можете прикреплять файлы к сообщениям
Вы не можете скачивать файлы

!ВНИМАНИЕ!
Сайт не предоставляет электронные версии произведений, а занимается лишь коллекционированием и каталогизацией ссылок, присылаемых и публикуемых на форуме нашими читателями. Если вы являетесь правообладателем какого-либо представленного материала и не желаете, чтобы ссылка на него находилась в нашем каталоге, свяжитесь с нами, и мы незамедлительно удалим ее. Файлы для обмена на трекере предоставлены пользователями сайта, и администрация не несет ответственности за их содержание. Просьба не заливать файлы, защищенные авторскими правами, а также файлы нелегального содержания!