[ Сегодня идет свободное скачивание без начисления Download ]


Статистика раздачи
Нет
 
   
 
Top  
 
 
Человек-невидимка (1984) Информация о фильме
Название: Человек-невидимка
Год выхода: 1984
Жанр: Приключения, Драма, Фантастика
Режиссер: Александр Захаров
В ролях: Андрей Харитонов, Ромуальдас Раманаускас, Леонид Куравлев, Наталья Данилова, Олег Голубицкий, Нина Агапова, Виктор Сергачев, Юрий Катин-Ярцев, Александр Пятков, Олегар Федоро, Эммануил Геллер, Анатолий Сахновский, Виктор Шульгин, Герман Качин, Вилус Пятраускас.
О фильме:
По мотивам одноимённого романа Герберта Уэллса.
Талантливый молодой исследователь находит способ делать физические тела невидимыми. Это кажется невероятным — однако в результате эксперимента ученый сам превращается в невидимку.
С этого момента жизнь его становится мучением: объявленный опасным преступником, он подвергается преследованию; его записи украдены — и он не в состоянии вернуть себе прежний облик; наконец, его открытие, попав в чужие руки, может стать орудием зла…

Страна: СССР
Продолжительность: 01:24:02
Перевод: не требуется
Файл
Кодек: MKV
Качество: DVDRip-AVC
Видео: MPEG-4 AVC, 2200 Кбит/с, [email protected]
Звук: AC3, 2 ch, 192 Кбит/с

Скриншоты

Медиа-Инфо

Общее
Уникальный идентификатор : 234275816474558789570790350987983224503 (0xB03FE18A7CFA3B67AC3DECA794667EB7)
Полное имя : R:МОИ РИПЫЧеловек невидимка_1984-DVDRip-AVC.mkv
Формат : Matroska
Версия формата : Version 2
Размер файла : 1,40 Гбайт
Продолжительность : 1 ч. 23 м.
Общий поток : 2400 Кбит/сек
Дата кодирования : UTC 2015-02-24 14:22:47
Программа кодирования : mkvmerge v5.8.0 ('No Sleep / Pillow') built on Sep 2 2012 15:37:04
Библиотека кодирования : libebml v1.2.3 + libmatroska v1.3.0
Видео
Идентификатор : 1
Формат : AVC
Формат/Информация : Advanced Video Codec
Профиль формата : [email protected]
Параметр CABAC формата : Да
Параметр ReFrames формата : 14 кадров
Идентификатор кодека : V_MPEG4/ISO/AVC
Продолжительность : 1 ч. 23 м.
Битрейт : 2200 Кбит/сек
Ширина : 714 пикселей
Высота : 570 пикселей
Соотношение сторон : 4:3
Соотношение сторон в оригинале : 4:3
Режим частоты кадров : Постоянный
Частота кадров : 25,000 кадров/сек
Цветовое пространство : YUV
Субдискретизация насыщенности : 4:2:0
Битовая глубина : 8 бит
Тип развёртки : Прогрессивная
Бит/(Пиксели*Кадры) : 0.216
Размер потока : 1,26 Гбайт (90%)
Библиотека кодирования : x264 core 130 r2273 b3065e6
Настройки программы : cabac=1 / ref=14 / deblock=1:-2:-2 / analyse=0x3:0x133 / me=umh / subme=10 / psy=1 / psy_rd=1.05:0.15 / mixed_ref=1 / me_range=32 / chroma_me=1 / trellis=2 / 8x8dct=1 / cqm=0 / deadzone=21,11 / fast_pskip=0 / chroma_qp_offset=-3 / threads=12 / lookahead_threads=2 / sliced_threads=0 / nr=0 / decimate=0 / interlaced=0 / bluray_compat=0 / constrained_intra=0 / bframes=7 / b_pyramid=2 / b_adapt=2 / b_bias=0 / direct=3 / weightb=1 / open_gop=0 / weightp=2 / keyint=250 / keyint_min=25 / scenecut=40 / intra_refresh=0 / rc=2pass / mbtree=0 / bitrate=2200 / ratetol=1.0 / qcomp=0.60 / qpmin=0 / qpmax=39 / qpstep=4 / cplxblur=20.0 / qblur=0.5 / ip_ratio=1.40 / pb_ratio=1.30 / aq=1:1.00
Язык : English
Default : Да
Forced : Нет
Основные цвета : BT.601 PAL
Характеристики трансфера : BT.470 System B, BT.470 System G
Коэффициенты матрицы : BT.601
Аудио
Идентификатор : 2
Формат : AC-3
Формат/Информация : Audio Coding 3
Расширение режима : CM (complete main)
Параметр Endianness формата : Big
Идентификатор кодека : A_AC3
Продолжительность : 1 ч. 23 м.
Вид битрейта : Постоянный
Битрейт : 192 Кбит/сек
Каналы : 2 канала
Расположение каналов : Front: L R
Частота : 48,0 КГц
Битовая глубина : 16 бит
Метод сжатия : С потерями
Размер потока : 115 Мбайт (8%)
Язык : Russian
Default : Да
Forced : Нет

[Цитировать]



Показать сообщения:    

Текущее время: 04-Дек 21:29

Часовой пояс: UTC + 3


Вы не можете начинать темы
Вы не можете отвечать на сообщения
Вы не можете редактировать свои сообщения
Вы не можете удалять свои сообщения
Вы не можете голосовать в опросах
Вы не можете прикреплять файлы к сообщениям
Вы не можете скачивать файлы

!ВНИМАНИЕ!
Сайт не предоставляет электронные версии произведений, а занимается лишь коллекционированием и каталогизацией ссылок, присылаемых и публикуемых на форуме нашими читателями. Если вы являетесь правообладателем какого-либо представленного материала и не желаете, чтобы ссылка на него находилась в нашем каталоге, свяжитесь с нами, и мы незамедлительно удалим ее. Файлы для обмена на трекере предоставлены пользователями сайта, и администрация не несет ответственности за их содержание. Просьба не заливать файлы, защищенные авторскими правами, а также файлы нелегального содержания!