[ Сегодня идет свободное скачивание без начисления Download ]


Статистика раздачи
Нет
 
   
 
Top  
 
 
Обычное шоу: Фильм / Regular Show: The Movie
Информация о фильме:
● Название: Обычное шоу: Фильм
● Оригинальное название: Regular Show: The Movie
● Год выхода: 2015
● Страна: США
● Студия: Cartoon Network Studios
● Жанр: Фантастика, комедия
● Режиссер: Дж.Дж. Куинтел
● В ролях: Марк Хэмилл, Дэвид Кокнер, Джейсон Манцукас, Сэм Марин, Дж.Дж. Куинтел, Уильям Салиерс, Роджер Крэйг Смит
● Продолжительность: 01:08:39
● Перевод: Отсутствует
● Субтитры: Русские (Dakota Family Translators)

Описание фильма:
...Чтобы спасти вселенную, само время, и свою дружбу, Мордекаю и Ригби предстоит вернуться в прошлое и победить своего "чеканутого" тренера по волейболу...

Информация о файле:
● Кодек: AVC
● Формат: MKV
● Качество: HDRip (720p)
● Видео: 1280x718, ~ 4000 Kbps, AVC h.264
● Аудио: AC3, 6 ch, 384 Kbps, 48.0 KHz

Семпл
Релиз от:

[color=orange]✔ Скриншоты[/color]

[color=orange]✔ MI[/color]

Общее
Уникальный идентификатор: 209047824121358337918144127034730162403 (0x9D45257C556EC8CA95A6827762D728E3)
Полное имя: D:MR_eng_moveRegular Show_The Movie. 2015. 720p.mkv
Формат: Matroska
Версия формата: Version 4 / Version 2
Размер файла: 2,16 Гбайт
Продолжительность: 1 ч. 8 м.
Общий поток: 4508 Кбит/сек
Название фильма: Regular Show: The Movie. SHAgroup-vk.com/club91570737
Дата кодирования: UTC 2015-09-07 04:59:27
Программа кодирования: mkvmerge v6.9.1 ('Blue Panther') 64bit built on Apr 18 2014 18:23:38
Библиотека кодирования: libebml v1.3.0 + libmatroska v1.4.1
Видео
Идентификатор: 1
Формат: AVC
Формат/Информация: Advanced Video Codec
Профиль формата: High@L3.1
Параметр CABAC формата: Нет
Параметр ReFrames формата: 2 кадра
Идентификатор кодека: V_MPEG4/ISO/AVC
Продолжительность: 1 ч. 8 м.
Битрейт: 4035 Кбит/сек
Ширина: 1280 пикселей
Высота: 718 пикселей
Соотношение сторон: 16:9
Режим частоты кадров: Постоянный
Частота кадров: 23,976 кадра/сек
Цветовое пространство: YUV
Субдискретизация насыщенности: 4:2:0
Битовая глубина: 8 бит
Тип развёртки: Прогрессивная
Бит/(Пиксели*Кадры): 0.183
Размер потока: 1,93 Гбайт (89%)
Заголовок: H.264
Язык: English
Default: Да
Forced: Нет
colour_range: Limited
Основные цвета: BT.709
Характеристики трансфера: BT.709
Коэффициенты матрицы: BT.709
Аудио
Идентификатор: 2
Формат: AC-3
Формат/Информация: Audio Coding 3
Расширение режима: CM (complete main)
Параметр Endianness формата: Big
Идентификатор кодека: A_AC3
Продолжительность: 1 ч. 8 м.
Вид битрейта: Постоянный
Битрейт: 384 Кбит/сек
Каналы: 6 каналов
Расположение каналов: Front: L C R, Side: L R, LFE
Частота: 48,0 КГц
Метод сжатия: С потерями
Размер потока: 189 Мбайт (9%)
Заголовок: DD5.1
Язык: English
Default: Да
Forced: Нет
Текст #1
Идентификатор: 3
Формат: UTF-8
Идентификатор кодека: S_TEXT/UTF8
Идентификатор кодека/Информация: UTF-8 Plain Text
Заголовок: Dakota Family Translators
Язык: Russian
Default: Да
Forced: Нет
Текст #2
Идентификатор: 4
Формат: UTF-8
Идентификатор кодека: S_TEXT/UTF8
Идентификатор кодека/Информация: UTF-8 Plain Text
Язык: English
Default: Нет
Forced: Нет

[Цитировать]



Показать сообщения:    

Текущее время: 07-Дек 00:55

Часовой пояс: UTC + 3


Вы не можете начинать темы
Вы не можете отвечать на сообщения
Вы не можете редактировать свои сообщения
Вы не можете удалять свои сообщения
Вы не можете голосовать в опросах
Вы не можете прикреплять файлы к сообщениям
Вы не можете скачивать файлы

!ВНИМАНИЕ!
Сайт не предоставляет электронные версии произведений, а занимается лишь коллекционированием и каталогизацией ссылок, присылаемых и публикуемых на форуме нашими читателями. Если вы являетесь правообладателем какого-либо представленного материала и не желаете, чтобы ссылка на него находилась в нашем каталоге, свяжитесь с нами, и мы незамедлительно удалим ее. Файлы для обмена на трекере предоставлены пользователями сайта, и администрация не несет ответственности за их содержание. Просьба не заливать файлы, защищенные авторскими правами, а также файлы нелегального содержания!