[ Сегодня идет свободное скачивание без начисления Download ]


Статистика раздачи
Нет
 
   
 
Top  
 
 
Убийственное лето / L'été meurtrier Название: Убийственное лето
Оригинальное название: L'été meurtrier
Год выпуска: 1983
Страна: Франция
Жанр: драма, детектив
Продолжительность: 02:13:30
Перевод: профессиональный многоголосый
Режиссёр: Жан Беккер
В ролях: Изабель Аджани, Ален Сушон, Сюзанн Флон, Женни Клев, Мария Мачадо, Эвелин Диди, Жан Гавен, Франсуа Клюзе, Мануэль Желен, Роже Карель, Мишель Галабрю, Мари-Пьер Касей, Сесиль Васор, Эдит Скоб, Виржини Виньон
Описание: 19-летняя Элеана с умопомрачительной фигурой Аджани очаровывает и раздражает своим независимым характером жителей деревушки в Провансе. Обольстительная красотка заводит роман с простодушным автомехаником, но её вызывающее поведение не по нраву родственникам жениха. Закрученный сюжет постепенно проясняет комплексы бесстрашной Элеаны. Она мечтает о страшной мести. Ведь рождение героини было связано с преступлением: трое мужчин изнасиловали её мать. Ослеплённая возмездием Элеана подставляет невинных жертв, а расплатой за кошмарное прошлое становится безумное настоящее... Фильм снят по мотивам романа Себастьяна Жапризо «Убийственное лето» (L’Été meurtrier, 1978).

Качество: BDRip AVC
Формат: MKV
Видео: MPEG-4 AVC, 2721 Кбит/с, 942x576, 23,976 кадра/с
Аудио 1: русский, AC3, 192 kbps, 2 ch, 48 kHz [профессиональный многоголосый]
Аудио 2: французский, AC3, 192 kbps, 2 ch, 48 kHz [оригинал]
Субтитры 1: русские
Субтитры 2: английские

Награды

Сезар, 1984 год
Победитель (4):
Лучшая актриса ( Изабель Аджани )
Лучшая актриса второго плана ( Сюзанн Флон )
Лучший адаптированный сценарий
Лучший монтаж
Номинации (5):
Лучший фильм
Лучший актер (Ален Сушон)
Лучший актер второго плана (Франсуа Клюзе)
Лучший режиссер (Жан Бекер)
Лучший саундтрек
Каннский кинофестиваль, 1983 год
Номинации (1):
Золотая пальмовая ветвь

Инфо-файл

Общее
Уникальный идентификатор : 235703892911835104450548672525173224327 (0xB152EB253988FFE5A1DCCB1E9ABF7387)
Полное имя : D:VideoУбийственное лето.1983.BDRip.AVC.mkv
Формат : Matroska
Версия формата : Version 4 / Version 2
Размер файла : 2,95 Гбайт
Продолжительность : 2 ч. 13 м.
Общий поток : 3168 Кбит/сек
Название фильма : BDRip -- STarankov
Дата кодирования : UTC 2015-09-07 05:25:28
Программа кодирования : mkvmerge v8.2.0 ('World of Adventure') 64bit
Библиотека кодирования : libebml v1.3.1 + libmatroska v1.4.2
DURATION : 02:08:24.437000000
NUMBER_OF_FRAMES : 1202
NUMBER_OF_BYTES : 48788
_STATISTICS_WRITING_APP : mkvmerge v8.2.0 ('World of Adventure') 64bit
_STATISTICS_WRITING_DATE_UTC : 2015-09-07 05:25:28
_STATISTICS_TAGS : BPS DURATION NUMBER_OF_FRAMES NUMBER_OF_BYTES
Видео
Идентификатор : 1
Формат : AVC
Формат/Информация : Advanced Video Codec
Профиль формата : [email protected]
Параметр CABAC формата : Да
Параметр ReFrames формата : 9 кадров
Идентификатор кодека : V_MPEG4/ISO/AVC
Продолжительность : 2 ч. 13 м.
Битрейт : 2721 Кбит/сек
Ширина : 942 пикселя
Высота : 576 пикселей
Соотношение сторон : 16:10
Режим частоты кадров : Постоянный
Частота кадров : 23,976 кадра/сек
Цветовое пространство : YUV
Субдискретизация насыщенности : 4:2:0
Битовая глубина : 8 бит
Тип развёртки : Прогрессивная
Бит/(Пиксели*Кадры) : 0.209
Размер потока : 2,54 Гбайт (86%)
Библиотека кодирования : x264 core 146 r2538 121396c
Настройки программы : cabac=1 / ref=9 / deblock=1:-3:-3 / analyse=0x3:0x113 / me=umh / subme=10 / psy=1 / psy_rd=1.00:0.15 / mixed_ref=1 / me_range=32 / chroma_me=1 / trellis=2 / 8x8dct=1 / cqm=0 / deadzone=21,11 / fast_pskip=1 / chroma_qp_offset=-3 / threads=6 / lookahead_threads=1 / sliced_threads=0 / nr=0 / decimate=1 / interlaced=0 / bluray_compat=0 / constrained_intra=0 / bframes=12 / b_pyramid=2 / b_adapt=2 / b_bias=0 / direct=1 / weightb=1 / open_gop=0 / weightp=2 / keyint=230 / keyint_min=23 / scenecut=40 / intra_refresh=0 / rc_lookahead=40 / rc=crf / mbtree=0 / crf=21.4 / qcomp=0.60 / qpmin=0 / qpmax=69 / qpstep=4 / vbv_maxrate=40000 / vbv_bufsize=50000 / crf_max=0.0 / nal_hrd=none / filler=0 / ip_ratio=1.40 / pb_ratio=1.30 / aq=1:1.00
Язык : French
Default : Да
Forced : Нет
DURATION : 02:13:30.836000000
NUMBER_OF_FRAMES : 192068
NUMBER_OF_BYTES : 2785613355
_STATISTICS_WRITING_APP : mkvmerge v8.2.0 ('World of Adventure') 64bit
_STATISTICS_WRITING_DATE_UTC : 2015-09-07 05:25:28
_STATISTICS_TAGS : BPS DURATION NUMBER_OF_FRAMES NUMBER_OF_BYTES
Аудио #1
Идентификатор : 2
Формат : AC-3
Формат/Информация : Audio Coding 3
Расширение режима : CM (complete main)
Параметр Endianness формата : Big
Идентификатор кодека : A_AC3
Продолжительность : 2 ч. 13 м.
Вид битрейта : Постоянный
Битрейт : 192 Кбит/сек
Каналы : 2 канала
Расположение каналов : Front: L R
Частота : 48,0 КГц
Метод сжатия : С потерями
Размер потока : 183 Мбайт (6%)
Заголовок : MVO
Язык : Russian
Default : Да
Forced : Нет
Аудио #2
Идентификатор : 3
Формат : AC-3
Формат/Информация : Audio Coding 3
Расширение режима : CM (complete main)
Параметр Endianness формата : Big
Идентификатор кодека : A_AC3
Продолжительность : 2 ч. 13 м.
Вид битрейта : Постоянный
Битрейт : 192 Кбит/сек
Каналы : 2 канала
Расположение каналов : Front: L R
Частота : 48,0 КГц
Метод сжатия : С потерями
Размер потока : 183 Мбайт (6%)
Заголовок : Original
Язык : French
Default : Нет
Forced : Нет
Текст #1
Идентификатор : 4
Формат : UTF-8
Идентификатор кодека : S_TEXT/UTF8
Идентификатор кодека/Информация : UTF-8 Plain Text
Заголовок : русский
Язык : Russian
Default : Нет
Forced : Нет
Текст #2
Идентификатор : 5
Формат : UTF-8
Идентификатор кодека : S_TEXT/UTF8
Идентификатор кодека/Информация : UTF-8 Plain Text
Заголовок : английский
Default : Нет
Forced : Нет

Скриншоты

[Цитировать]



Показать сообщения:    

Текущее время: 04-Дек 09:14

Часовой пояс: UTC + 3


Вы не можете начинать темы
Вы не можете отвечать на сообщения
Вы не можете редактировать свои сообщения
Вы не можете удалять свои сообщения
Вы не можете голосовать в опросах
Вы не можете прикреплять файлы к сообщениям
Вы не можете скачивать файлы

!ВНИМАНИЕ!
Сайт не предоставляет электронные версии произведений, а занимается лишь коллекционированием и каталогизацией ссылок, присылаемых и публикуемых на форуме нашими читателями. Если вы являетесь правообладателем какого-либо представленного материала и не желаете, чтобы ссылка на него находилась в нашем каталоге, свяжитесь с нами, и мы незамедлительно удалим ее. Файлы для обмена на трекере предоставлены пользователями сайта, и администрация не несет ответственности за их содержание. Просьба не заливать файлы, защищенные авторскими правами, а также файлы нелегального содержания!